Debian-facile

Bienvenue sur Debian-Facile, site d'aide pour les nouveaux utilisateurs de Debian.

Vous n'êtes pas identifié(e).

#1 11-04-2015 16:08:44

bartaba
Membre
Distrib. : Debian Jessie
Noyau : Linux 3.16.0-4-amd64
(G)UI : Mate
Inscription : 04-02-2014

[résolu] comment télécharger une video de france5.fr ?

Bonjour
Je voudrais télécharger cette video http://www.france5.fr/emissions/j-irai- … 015_311765
J'ai essayé youtube-dl mais ça marche pas :

$ youtube-dl http://www.france5.fr/emissions/j-irai-dormir-chez-vous/diffusions/04-04-2015_311765
[francetv] j-irai-dormir-chez-vous: Downloading webpage
[francetv] NI_70547: Downloading XML config
ERROR: Unable to download XML: HTTP Error 404: Not Found; please report this issue on https://yt-dl.org/bug . Be sure to call youtube-dl with the --verbose flag and include its complete output. Make sure you are using the latest version; type  youtube-dl -U  to update.
 



Une idée ?

Dernière modification par bartaba (11-04-2015 17:28:58)

Hors ligne

#2 11-04-2015 16:28:09

paskal
autobahn
Lieu : ailleurs
Inscription : 14-06-2011
Site Web

Re : [résolu] comment télécharger une video de france5.fr ?

Bonjour,

En tout cas, ça ne peut pas fonctionner ainsi : tu donnes à youtube-dl l'url de la page web contenant la vidéo en question.
Il faudrait au moins lui donner l'url de la vidéo.  smile

I'd love to change the world
But I don't know what to do
So I'll leave it up to you...

logo-sur-fond.png

Hors ligne

#3 11-04-2015 16:32:06

Twoll
Membre
Inscription : 15-11-2014

Re : [résolu] comment télécharger une video de france5.fr ?

Plop,

Chez moi, ça marche avec le lien que tu as donné.

@paskal pour youtube-dl, il ne faut pas donner un lien en flv,mp4 ou autre, le logiciel se charge de récuperer la vidéo wink

Je te conseillerai de mettre à jour youtube-dl via la commande youtube-dl -U

Si ça bug encore, envoie moi un MP, je te donnerai un lien vers la vidéo smile

Hors ligne

#4 11-04-2015 16:40:00

paskal
autobahn
Lieu : ailleurs
Inscription : 14-06-2011
Site Web

Re : [résolu] comment télécharger une video de france5.fr ?

@Twoll: effectivement, mais :

$ ./youtube-dl http://www.france5.fr/emissions/j-irai-dormir-chez-vous/diffusions/04-04-2015_311765
[francetv] j-irai-dormir-chez-vous: Downloading webpage
[francetv] NI_70547: Downloading video JSON
[francetv] NI_70547: Downloading geo restriction info
[francetv] NI_70547: Downloading m3u8 information
[download] Destination: REPLAY - 'J'irai dormir chez vous  - le direct' en intégral-NI_70547.mp4
WARNING: Your copy of avconv is outdated, update avconv to version 10-0 or newer if you encounter any errors.
avconv version 0.8.16-6:0.8.16-1, Copyright (c) 2000-2014 the Libav developers
  built on Sep 16 2014 23:10:48 with gcc 4.7.2
[applehttp @ 0xf104c0] Estimating duration from bitrate, this may be inaccurate
Input #0, applehttp, from 'http://ftvodhdsecz-f.akamaihd.net/i/streaming-adaptatif_france-dom-tom/non-integrales/2015/S14/J7/JDCV_replay_integral_2H_04042015-h264-web-,398k,632k,934k,.mp4.csmil/index_2_av.m3u8?null=':
  Duration: 02:06:28.00, start: 10.101000, bitrate: N/A
    Stream #0.0: Video: h264 (Main), yuv420p, 704x396 [PAR 1:1 DAR 16:9], 25 tbr, 90k tbn, 50 tbc
    Stream #0.1: Audio: aac, 48000 Hz, stereo, s16
Output #0, mp4, to 'REPLAY - 'J'irai dormir chez vous  - le direct' en intégral-NI_70547.mp4.part':
  Metadata:
    encoder         : Lavf53.21.1
    Stream #0.0: Video: libx264, yuv420p, 704x396 [PAR 1:1 DAR 16:9], q=2-31, 90k tbn, 90k tbc
    Stream #0.1: Audio: aac, 48000 Hz, stereo
Stream mapping:
  Stream #0:0 -> #0:0 (copy)
  Stream #0:1 -> #0:1 (copy)
Press ctrl-c to stop encoding
[mp4 @ 0x1539d60] Application provided invalid, non monotonically increasing dts to muxer in stream 1: 240 >= 240
av_interleaved_write_frame(): Invalid argument


ERROR: avconv exited with code 1
 


Il faut une version récente de avconv ...


I'd love to change the world
But I don't know what to do
So I'll leave it up to you...

logo-sur-fond.png

Hors ligne

#5 11-04-2015 16:53:40

bartaba
Membre
Distrib. : Debian Jessie
Noyau : Linux 3.16.0-4-amd64
(G)UI : Mate
Inscription : 04-02-2014

Re : [résolu] comment télécharger une video de france5.fr ?

J'ai désinstallé le paquet youtube-dl, à la place j'ai fait uen installation manuelle pour avoir une version plus récent : http://rg3.github.io/youtube-dl/download.html
Et ça a l'air de marcher, c'est en cours de téléchargement là.

edit : c'est bon ça a marché

Dernière modification par bartaba (11-04-2015 17:28:40)

Hors ligne

Pied de page des forums