Debian-facile

Bienvenue sur Debian-Facile, site d'aide pour les nouveaux utilisateurs de Debian.

Vous n'êtes pas identifié(e).

#1 14-10-2015 20:28:46

golgot200
Membre
Lieu : AIN
Distrib. : Debian Jessie
Noyau : Linux debian 3.16.0-4-amd64
(G)UI : MATE
Inscription : 05-08-2007

Tests du H265 ou H264

Bonsoir,

Qui fait suite à mon post :

https://debian-facile.org/viewtopic.php?id=12373

Je viens de compiler ffmpeg (avec enable x265) suite à quelques déboires avec la libav du dépôt (avconv)

J'ai trouvé une commande avec des paramètres que je ne comprend pas toujours mais en bidouillant tout ça, ça me donne un truc du genre à me satisfaire assez bien.
Cette commande pour l'instant en est à ce point :



./ffmpeg -i LADY_AND_THE_TRAMP2.vob -threads:v 2 -sws_flags bicubic -vf "scale=0:0,unsharp=3:3:2.03" -map 0:0 -map 0:2 -map 0:6  -flags global_header -acodec copy -scodec copy -codec:v libx265  -b:v 15000k -minrate 1k -maxrate 128k -flags +loop -me_method umh -g 250 -qcomp 0.6 -qmin 01 -qmax 81 -qdiff 4 -bf 16 -b_strategy 4 -i_qfactor 0.81 -preset ultrafast  Sortie.mkv
 



Un fichier unique rippé d'un DVD sur mon disque.
J'ai bataillé pour pouvoir inclure un sous-titre dvd à la vidéo et la bande son french AC3 5.1.
J'ai compris qu'il n'était pas possible pour ce sous-titre d'être inclus si on était en direct copie. Qu'il fallait obligatoirement passer par un encodage pour reconstruire un truc nommé Timestamps ou un truc comme ça. Je sais, j'essaie d'apprendre tongue

Donc, ça me faisait ch..er de passer par l'encodage, alors j'ai cherché le moyen de faire avec une compression mini. Ce dvd tend vers le floue et cette commande et ces réglages on fait à mon avis un miracle.

Original: (flou)

1444846242.png

H265: (Vraiment moins flou)

1444847228.png


Pour les spécialistes, qu'en pensez-vous ? Slyfox entre autre qui m'a l'air traumatisé par la chose wink

Dernière modification par golgot200 (16-10-2015 09:26:07)


L'ultime question ... l'intelligence a besoin de la bêtise pour s'affirmer, la beauté a besoin de la laideur pour resplendir, le courage nait dans la peur, les forts impressionnent au millieu des faibles, mais au final,... qui a donc besoin d'autant de connards ?

Hors ligne

#2 14-10-2015 20:51:01

Slyfox
Membre
Lieu : Pays du chocolat
Distrib. : GNU/Linux Debian Sid
Noyau : Linux 4.7.0-1-amd64
(G)UI : MATE
Inscription : 15-12-2013

Re : Tests du H265 ou H264

Salut l'ami smile

Je ne connais pas encore assez bien ce format qu'est le x265 qui en passant me semble très prometteur, il faut que je teste... big_smile

Sinon un truc que je trouve bizarre sur des 2 images, comme arrives-tu à avoir une image moins floue que l'original ?

Pour info pour remuxer video, audio et sous-titre j'utilise mkvmerge.

Dernière modification par Slyfox (14-10-2015 20:55:33)

Hors ligne

#3 14-10-2015 20:56:32

golgot200
Membre
Lieu : AIN
Distrib. : Debian Jessie
Noyau : Linux debian 3.16.0-4-amd64
(G)UI : MATE
Inscription : 05-08-2007

Re : Tests du H265 ou H264

Salut Slyfox.

Toi aussi ça t'étonne et bien comme moi tout à l'heure en regardant le résultat.
C'est la commande au dessus. Il faudrait la décortiquer smile

Gauche H265 et à droite VOB

1444848953.png

EDIT:

Slyfox a écrit :

...
Pour info pour remuxer video, audio et sous-titre j'utilise mkvmerge.



Moi, je voulais en fait faire tout ça avec qu'un seul programme (ffmpeg ou avconv)
et mplayer pour le dump et les infos

Dernière modification par golgot200 (14-10-2015 21:04:20)


L'ultime question ... l'intelligence a besoin de la bêtise pour s'affirmer, la beauté a besoin de la laideur pour resplendir, le courage nait dans la peur, les forts impressionnent au millieu des faibles, mais au final,... qui a donc besoin d'autant de connards ?

Hors ligne

#4 14-10-2015 21:03:23

Slyfox
Membre
Lieu : Pays du chocolat
Distrib. : GNU/Linux Debian Sid
Noyau : Linux 4.7.0-1-amd64
(G)UI : MATE
Inscription : 15-12-2013

Re : Tests du H265 ou H264

Pour le fun, tu pourrais retourner le résultat de la commande:

ffmpeg -i ma_video



ou

avconv -i ma_video



pour la vidéo vob et pour la video x265/mkv

Dernière modification par Slyfox (14-10-2015 21:03:48)

Hors ligne

#5 14-10-2015 21:07:41

golgot200
Membre
Lieu : AIN
Distrib. : Debian Jessie
Noyau : Linux debian 3.16.0-4-amd64
(G)UI : MATE
Inscription : 05-08-2007

Re : Tests du H265 ou H264

La vidéo de sortie : ( en cours d'encodage mais ça ne doit pas géner pour les infos)

Voilà :


patrick@debian:~/bin$ ./ffmpeg -i Sortie.mkv
ffmpeg version N-75970-g5bd62a1 Copyright (c) 2000-2015 the FFmpeg developers
  built with gcc 4.9.2 (Debian 4.9.2-10)
  configuration: --prefix=/home/patrick/ffmpeg_build --pkg-config-flags=--static --extra-cflags=-I/home/patrick/ffmpeg_build/include --extra-ldflags=-L/home/patrick/ffmpeg_build/lib --bindir=/home/patrick/bin --enable-gpl --enable-libass --enable-libfdk-aac --enable-libfreetype --enable-libmp3lame --enable-libopus --enable-libtheora --enable-libvorbis --enable-libvpx --enable-libx264 --enable-libx265 --enable-nonfree
  libavutil      55.  3.100 / 55.  3.100
  libavcodec     57.  5.100 / 57.  5.100
  libavformat    57.  3.100 / 57.  3.100
  libavdevice    57.  0.100 / 57.  0.100
  libavfilter     6. 11.100 /  6. 11.100
  libswscale      4.  0.100 /  4.  0.100
  libswresample   2.  0.100 /  2.  0.100
  libpostproc    54.  0.100 / 54.  0.100
Input #0, matroska,webm, from 'Sortie.mkv':
  Metadata:
    ENCODER         : Lavf57.3.100
  Duration: N/A, start: 0.000000, bitrate: N/A
    Stream #0:0: Video: hevc (Main), yuv420p(tv), 720x576 [SAR 64:45 DAR 16:9], 25 fps, 25 tbr, 1k tbn, 25 tbc (default)
    Metadata:
      ENCODER         : Lavc57.5.100 libx265
    Stream #0:1: Audio: ac3, 48000 Hz, 5.1(side), fltp, 384 kb/s (default)
    Stream #0:2: Subtitle: dvd_subtitle (default)
At least one output file must be specified
patrick@debian:~/bin$

 


L'ultime question ... l'intelligence a besoin de la bêtise pour s'affirmer, la beauté a besoin de la laideur pour resplendir, le courage nait dans la peur, les forts impressionnent au millieu des faibles, mais au final,... qui a donc besoin d'autant de connards ?

Hors ligne

#6 14-10-2015 21:10:47

Slyfox
Membre
Lieu : Pays du chocolat
Distrib. : GNU/Linux Debian Sid
Noyau : Linux 4.7.0-1-amd64
(G)UI : MATE
Inscription : 15-12-2013

Re : Tests du H265 ou H264

Retourne moi les infos une fois que tu as terminé l'encodage... il me manque le bitrate (débit)... big_smile

Duration: N/A, start: 0.000000, bitrate: N/A

Dernière modification par Slyfox (14-10-2015 21:12:34)

Hors ligne

#7 14-10-2015 21:11:31

golgot200
Membre
Lieu : AIN
Distrib. : Debian Jessie
Noyau : Linux debian 3.16.0-4-amd64
(G)UI : MATE
Inscription : 05-08-2007

Re : Tests du H265 ou H264

Arghhhhhh , je me suis gourré de piste audio, je suis en stéréo lol

EDIT : non, c'est mplayer qui déraille hmm big_smile

Dernière modification par golgot200 (14-10-2015 21:14:17)


L'ultime question ... l'intelligence a besoin de la bêtise pour s'affirmer, la beauté a besoin de la laideur pour resplendir, le courage nait dans la peur, les forts impressionnent au millieu des faibles, mais au final,... qui a donc besoin d'autant de connards ?

Hors ligne

#8 14-10-2015 21:15:52

golgot200
Membre
Lieu : AIN
Distrib. : Debian Jessie
Noyau : Linux debian 3.16.0-4-amd64
(G)UI : MATE
Inscription : 05-08-2007

Re : Tests du H265 ou H264

ça va tourner autour de 15000 k

1444850273.png

Dernière modification par golgot200 (14-10-2015 21:18:10)


L'ultime question ... l'intelligence a besoin de la bêtise pour s'affirmer, la beauté a besoin de la laideur pour resplendir, le courage nait dans la peur, les forts impressionnent au millieu des faibles, mais au final,... qui a donc besoin d'autant de connards ?

Hors ligne

#9 14-10-2015 21:23:29

golgot200
Membre
Lieu : AIN
Distrib. : Debian Jessie
Noyau : Linux debian 3.16.0-4-amd64
(G)UI : MATE
Inscription : 05-08-2007

Re : Tests du H265 ou H264

Mediainfo :


General
Unique ID                                : 193417272101618270094021858622858321348 (0x9182CFC5AFF83B2A7D3851E1B037DDC4)
Complete name                            : Sortie.mkv
Format                                   : Matroska
Format version                           : Version 4 / Version 2
File size                                : 2.08 GiB
Writing application                      : Lavf57.3.100
Writing library                          : Lavf57.3.100

Video
ID                                       : 1
Format                                   : HEVC
Format/Info                              : High Efficiency Video Coding
Format profile                           : Main@L4.1
Codec ID                                 : V_MPEGH/ISO/HEVC
Width                                    : 720 pixels
Height                                   : 576 pixels
Display aspect ratio                     : 16:9
Frame rate mode                          : Constant
Frame rate                               : 25.000 fps
Standard                                 : PAL
Color space                              : YUV
Chroma subsampling                       : 4:2:0
Bit depth                                : 8 bits
Writing library                          : x265 1.8+31-b6156a08b1de:[Linux][GCC 4.9.2][64 bit] 8bit
Encoding settings                        : wpp / ctu=32 / min-cu-size=16 / max-tu-size=32 / tu-intra-depth=1 / tu-inter-depth=1 / me=0 / subme=0 / merange=57 / no-rect / no-amp / max-merge=2 / temporal-mvp / early-skip / rdpenalty=0 / no-tskip / no-tskip-fast / strong-intra-smoothing / no-lossless / no-cu-lossless / no-constrained-intra / fast-intra / open-gop / no-temporal-layers / interlace=0 / keyint=250 / min-keyint=25 / scenecut=0 / rc-lookahead=5 / lookahead-slices=0 / bframes=3 / bframe-bias=0 / b-adapt=0 / ref=1 / limit-refs=0 / no-weightp / no-weightb / aq-mode=0 / qg-size=32 / aq-strength=0.00 / cbqpoffs=0 / crqpoffs=0 / rd=2 / psy-rd=0.30 / rdoq-level=0 / psy-rdoq=0.00 / no-signhide / deblock / no-sao / no-sao-non-deblock / b-pyramid / no-cutree / rc=abr / bitrate=15000 / qcomp=0.60 / qpmin=0 / qpmax=51 / qpstep=4 / ipratio=1.40 / pbratio=1.30
Default                                  : Yes
Forced                                   : No

Audio
ID                                       : 2
Format                                   : AC-3
Format/Info                              : Audio Coding 3
Mode extension                           : CM (complete main)
Format settings, Endianness              : Big
Codec ID                                 : A_AC3
Bit rate mode                            : Constant
Bit rate                                 : 384 Kbps
Channel(s)                               : 6 channels
Channel positions                        : Front: L C R, Side: L R, LFE
Sampling rate                            : 48.0 KHz
Bit depth                                : 16 bits
Compression mode                         : Lossy
Default                                  : Yes
Forced                                   : No

Text
ID                                       : 3
Format                                   : VobSub
Codec ID                                 : S_VOBSUB
Codec ID/Info                            : The same subtitle format used on DVDs
Default                                  : Yes
Forced                                   : No


 


L'ultime question ... l'intelligence a besoin de la bêtise pour s'affirmer, la beauté a besoin de la laideur pour resplendir, le courage nait dans la peur, les forts impressionnent au millieu des faibles, mais au final,... qui a donc besoin d'autant de connards ?

Hors ligne

#10 14-10-2015 21:35:05

Slyfox
Membre
Lieu : Pays du chocolat
Distrib. : GNU/Linux Debian Sid
Noyau : Linux 4.7.0-1-amd64
(G)UI : MATE
Inscription : 15-12-2013

Re : Tests du H265 ou H264

Perso je viens d'essayer une commande maison, MKV/x265/aac

Vidéo x265, taille 2.4 Mo:

avconv -fflags +genpts -y -i /home/slyfox/Bureau/video.mkv -threads 0 -preset medium -crf 18 -c:v libx265 -mbd rd -flags +mv4+aic -trellis 2 -cmp 2 -subcmp 2 -g 300 -c:a libfdk_aac -vbr 5 "/home/$USER/Bureau/new_265.mkv" 2>&1
 



Duration: 00:00:15.04, start: 0.000000, bitrate: 1269 kb/s
    Stream #0:0(eng): Video: hevc (Main), yuv420p(tv), 1280x528 [SAR 1:1 DAR 80:33], 1k fps, 47.95 tbr, 1k tbn, 1k tbc (default)
 




vidéo x264, taille 7.6 Mo:

avconv -fflags +genpts -y -i /home/slyfox/Bureau/video.mkv -threads 0 -preset medium -crf 18 -c:v libx264 -mbd rd -flags +mv4+aic -trellis 2 -cmp 2 -subcmp 2 -g 300 -c:a libfdk_aac -vbr 5 -ss 60 -t 15 "/home/$USER/Bureau/new_264.mkv" 2>&1



 Duration: 00:00:15.04, start: 0.000000, bitrate: 4036 kb/s
    Stream #0:0(eng): Video: h264 (High), yuv420p, 1280x528 [SAR 1:1 DAR 80:33], 1k fps, 23.98 tbr, 1k tbn, 2k tbc (default)
 



Visuellement je ne vois pas une grande différence, mais niveau performance le x265 fait plus fort que le x264 !!! cool

Dernière modification par Slyfox (14-10-2015 21:35:51)

Hors ligne

#11 14-10-2015 21:40:55

golgot200
Membre
Lieu : AIN
Distrib. : Debian Jessie
Noyau : Linux debian 3.16.0-4-amd64
(G)UI : MATE
Inscription : 05-08-2007

Re : Tests du H265 ou H264

smile

Et bien moi pour 1 h 06 mn, ( 24 minutes actuellement), ça va tourner une bonne partie de la nuit. Faut ce qu'il faut.
Après encodage d'un multicam ACDC Stade de France 2015 !!!
T'as pas une combine pour déflouter la bande son ??? lol

Dernière modification par golgot200 (14-10-2015 21:41:28)


L'ultime question ... l'intelligence a besoin de la bêtise pour s'affirmer, la beauté a besoin de la laideur pour resplendir, le courage nait dans la peur, les forts impressionnent au millieu des faibles, mais au final,... qui a donc besoin d'autant de connards ?

Hors ligne

#12 14-10-2015 21:42:16

nIQnutn
Modérateur
Lieu : Lyon
Distrib. : Jessie
Noyau : Linux 3.16-amd64
(G)UI : XFCE
Inscription : 16-03-2012
Site Web

Re : Tests du H265 ou H264

peut être que kao peut aider sur le sujet http://kaocode.fr/sauvegarder-ses-dvd-v … ec-ffmpeg/

Hors ligne

#13 14-10-2015 21:44:53

golgot200
Membre
Lieu : AIN
Distrib. : Debian Jessie
Noyau : Linux debian 3.16.0-4-amd64
(G)UI : MATE
Inscription : 05-08-2007

Re : Tests du H265 ou H264

Merci pour le lien nIQnutn wink

L'ultime question ... l'intelligence a besoin de la bêtise pour s'affirmer, la beauté a besoin de la laideur pour resplendir, le courage nait dans la peur, les forts impressionnent au millieu des faibles, mais au final,... qui a donc besoin d'autant de connards ?

Hors ligne

#14 15-10-2015 07:55:37

golgot200
Membre
Lieu : AIN
Distrib. : Debian Jessie
Noyau : Linux debian 3.16.0-4-amd64
(G)UI : MATE
Inscription : 05-08-2007

Re : Tests du H265 ou H264

Pour ce qui est de la partie moins floue, c'est cette option :


-sws_flags bicubic -vf "scale=0:0,unsharp=3:3:2.03"
 



Si je vire :


-vf "scale=0:0,unsharp=3:3:2.03"
 



C'est floue comme l'original wink

FFmpeg Basics: unsharp filter

https://www.youtube.com/watch?v=QbaPLEcTR1k

Dernière modification par golgot200 (15-10-2015 08:15:56)


L'ultime question ... l'intelligence a besoin de la bêtise pour s'affirmer, la beauté a besoin de la laideur pour resplendir, le courage nait dans la peur, les forts impressionnent au millieu des faibles, mais au final,... qui a donc besoin d'autant de connards ?

Hors ligne

#15 15-10-2015 08:57:38

Slyfox
Membre
Lieu : Pays du chocolat
Distrib. : GNU/Linux Debian Sid
Noyau : Linux 4.7.0-1-amd64
(G)UI : MATE
Inscription : 15-12-2013

Re : Tests du H265 ou H264

Formidable ce filtre ! cool

Je vais faire un test, c'est l’événement de la journée ! lol

Un autre lien voir le point 24.39 (c'est pour avconv mais doit fonctionner aussi pour ffmpeg): https://libav.org/avconv.html#unsharp

Remarque: c'est en anglais pour non-anglophone (comme my) un simple copie-coller dans un traducteur en ligne et le tour est joué ! roll

Dernière modification par Slyfox (15-10-2015 09:00:39)

Hors ligne

#16 15-10-2015 09:17:40

golgot200
Membre
Lieu : AIN
Distrib. : Debian Jessie
Noyau : Linux debian 3.16.0-4-amd64
(G)UI : MATE
Inscription : 05-08-2007

Re : Tests du H265 ou H264

Attend, j'ai mieux, je post wink

L'ultime question ... l'intelligence a besoin de la bêtise pour s'affirmer, la beauté a besoin de la laideur pour resplendir, le courage nait dans la peur, les forts impressionnent au millieu des faibles, mais au final,... qui a donc besoin d'autant de connards ?

Hors ligne

#17 15-10-2015 09:42:52

golgot200
Membre
Lieu : AIN
Distrib. : Debian Jessie
Noyau : Linux debian 3.16.0-4-amd64
(G)UI : MATE
Inscription : 05-08-2007

Re : Tests du H265 ou H264

Avec Unsharp, une réduction du bruit. C'est bleuffant !!!

1444894898.png



1444895537.png

Original Floue


1444895284.png 1444895099.png
          Avec Noise (Petits Cubes)                                                 Sans Noise (Plus de petits cubes)  lol


./ffmpeg  -i LADY_AND_THE_TRAMP2.vob -threads:v 2 -sws_flags bicubic -vf "scale=0:0,hqdn3d=4.0:3.0:6.0:4.5,unsharp=3:3:2.03" -map 0:0 -map 0:2  -flags global_header -acodec copy -vcodec libx264 -crf 14 -preset ultrafast  Sortie.mkv
 



Une question, que veut dire : -threads:v 2


EDIT: Je laisse tomber les sous-titres pour l'instant. Un coup, ça marche et comme ce matin, une vidéo difficilement navigable wink

Dernière modification par golgot200 (15-10-2015 09:56:11)


L'ultime question ... l'intelligence a besoin de la bêtise pour s'affirmer, la beauté a besoin de la laideur pour resplendir, le courage nait dans la peur, les forts impressionnent au millieu des faibles, mais au final,... qui a donc besoin d'autant de connards ?

Hors ligne

#18 15-10-2015 09:57:40

golgot200
Membre
Lieu : AIN
Distrib. : Debian Jessie
Noyau : Linux debian 3.16.0-4-amd64
(G)UI : MATE
Inscription : 05-08-2007

Re : Tests du H265 ou H264

Encore quelques réglages et je lance mon entreprise de nettoyage !!! big_smile

L'ultime question ... l'intelligence a besoin de la bêtise pour s'affirmer, la beauté a besoin de la laideur pour resplendir, le courage nait dans la peur, les forts impressionnent au millieu des faibles, mais au final,... qui a donc besoin d'autant de connards ?

Hors ligne

#19 15-10-2015 10:00:54

kao
Modérateur
Distrib. : Testing
Noyau : Linux 4.quelquechose
(G)UI : Gnome 3
Inscription : 28-09-2012
Site Web

Re : Tests du H265 ou H264

Intéressant le filtre unsharp, tout les réglages sont décris ici : https://ffmpeg.org/ffmpeg-filters.html#unsharp-1 je testerai bien ce truc moi aussi.

Je serais aussi tenter de regarder un réducteur de bruit avant de lancer la compression : https://ffmpeg.org/ffmpeg-filters.html#owdenoise
Si c'est bien réglé, cela peut réduire les flous autour des objets, et là aussi lisser les pixels, on se retrouve donc avec une compression moins complexe à faire, et donc en théorie un meilleur rapport qualité/compression.

les deux filtres sont peut-être équivalent...

Edit : pas assez rapide smile https://ffmpeg.org/ffmpeg-filters.html#hqdn3d-1

Hors ligne

#20 15-10-2015 10:17:25

golgot200
Membre
Lieu : AIN
Distrib. : Debian Jessie
Noyau : Linux debian 3.16.0-4-amd64
(G)UI : MATE
Inscription : 05-08-2007

Re : Tests du H265 ou H264

smile

L'ultime question ... l'intelligence a besoin de la bêtise pour s'affirmer, la beauté a besoin de la laideur pour resplendir, le courage nait dans la peur, les forts impressionnent au millieu des faibles, mais au final,... qui a donc besoin d'autant de connards ?

Hors ligne

#21 15-10-2015 10:23:05

golgot200
Membre
Lieu : AIN
Distrib. : Debian Jessie
Noyau : Linux debian 3.16.0-4-amd64
(G)UI : MATE
Inscription : 05-08-2007

Re : Tests du H265 ou H264

Bon moi, je continu pour l'instant en x264 car le x265 pour ma petite config, c'est trop limite tongue
La grosseur de la vidéo n'est pas primordiale pour mon compte perso.

Dernière modification par golgot200 (15-10-2015 10:24:17)


L'ultime question ... l'intelligence a besoin de la bêtise pour s'affirmer, la beauté a besoin de la laideur pour resplendir, le courage nait dans la peur, les forts impressionnent au millieu des faibles, mais au final,... qui a donc besoin d'autant de connards ?

Hors ligne

#22 15-10-2015 10:29:22

golgot200
Membre
Lieu : AIN
Distrib. : Debian Jessie
Noyau : Linux debian 3.16.0-4-amd64
(G)UI : MATE
Inscription : 05-08-2007

Re : Tests du H265 ou H264

Vidéo fini !!!


patrick@debian:~/bin$ ./ffmpeg  -i LADY_AND_THE_TRAMP2.vob -threads:v 2 -sws_flags bicubic -vf "scale=0:0,hqdn3d=4.0:3.0:6.0:4.5,unsharp=3:3:2.03" -map 0:0 -map 0:2  -flags global_header -acodec copy -vcodec libx264 -crf 14 -preset ultrafast  Sortie.mkv
ffmpeg version N-75970-g5bd62a1 Copyright (c) 2000-2015 the FFmpeg developers
  built with gcc 4.9.2 (Debian 4.9.2-10)
  configuration: --prefix=/home/patrick/ffmpeg_build --pkg-config-flags=--static --extra-cflags=-I/home/patrick/ffmpeg_build/include --extra-ldflags=-L/home/patrick/ffmpeg_build/lib --bindir=/home/patrick/bin --enable-gpl --enable-libass --enable-libfdk-aac --enable-libfreetype --enable-libmp3lame --enable-libopus --enable-libtheora --enable-libvorbis --enable-libvpx --enable-libx264 --enable-libx265 --enable-nonfree
  libavutil      55.  3.100 / 55.  3.100
  libavcodec     57.  5.100 / 57.  5.100
  libavformat    57.  3.100 / 57.  3.100
  libavdevice    57.  0.100 / 57.  0.100
  libavfilter     6. 11.100 /  6. 11.100
  libswscale      4.  0.100 /  4.  0.100
  libswresample   2.  0.100 /  2.  0.100
  libpostproc    54.  0.100 / 54.  0.100
Input #0, mpeg, from 'LADY_AND_THE_TRAMP2.vob':
  Duration: 01:06:12.99, start: 0.287267, bitrate: 7912 kb/s
    Stream #0:0[0x1e0]: Video: mpeg2video (Main), yuv420p(tv), 720x576 [SAR 64:45 DAR 16:9], max. 7600 kb/s, 25 fps, 25 tbr, 90k tbn, 50 tbc
    Stream #0:1[0x80]: Audio: ac3, 48000 Hz, 5.1(side), fltp, 384 kb/s
    Stream #0:2[0x81]: Audio: ac3, 48000 Hz, 5.1(side), fltp, 384 kb/s
    Stream #0:3[0x82]: Audio: ac3, 48000 Hz, 5.1(side), fltp, 384 kb/s
    Stream #0:4[0x83]: Audio: ac3, 48000 Hz, stereo, fltp, 192 kb/s
    Stream #0:5[0x20]: Subtitle: dvd_subtitle
    Stream #0:6[0x21]: Subtitle: dvd_subtitle
    Stream #0:7[0x22]: Subtitle: dvd_subtitle
    Stream #0:8[0x23]: Subtitle: dvd_subtitle
    Stream #0:9[0x24]: Subtitle: dvd_subtitle
    Stream #0:10[0x25]: Subtitle: dvd_subtitle
[libx264 @ 0x3e575c0] using SAR=64/45
[libx264 @ 0x3e575c0] using cpu capabilities: MMX2 SSE2Fast SSSE3 Cache64 SlowShuffle
[libx264 @ 0x3e575c0] profile Constrained Baseline, level 3.0
[libx264 @ 0x3e575c0] 264 - core 148 - H.264/MPEG-4 AVC codec - Copyleft 2003-2015 - http://www.videolan.org/x264.html - options: cabac=0 ref=1 deblock=0:0:0 analyse=0:0 me=dia subme=0 psy=1 psy_rd=1.00:0.00 mixed_ref=0 me_range=16 chroma_me=1 trellis=0 8x8dct=0 cqm=0 deadzone=21,11 fast_pskip=1 chroma_qp_offset=0 threads=2 lookahead_threads=1 sliced_threads=0 nr=0 decimate=1 interlaced=0 bluray_compat=0 constrained_intra=0 bframes=0 weightp=0 keyint=250 keyint_min=25 scenecut=0 intra_refresh=0 rc=crf mbtree=0 crf=14.0 qcomp=0.60 qpmin=0 qpmax=69 qpstep=4 ip_ratio=1.40 aq=0
Output #0, matroska, to 'Sortie.mkv':
  Metadata:
    encoder         : Lavf57.3.100
    Stream #0:0: Video: h264 (libx264) (H264 / 0x34363248), yuv420p, 720x576 [SAR 64:45 DAR 16:9], q=-1--1, 25 fps, 1k tbn, 25 tbc
    Metadata:
      encoder         : Lavc57.5.100 libx264
    Stream #0:1: Audio: ac3 ([0] [0][0] / 0x2000), 48000 Hz, 5.1(side), 384 kb/s
Stream mapping:
  Stream #0:0 -> #0:0 (mpeg2video (native) -> h264 (libx264))
  Stream #0:2 -> #0:1 (copy)
Press [q] to stop, [?] for help
frame=99326 fps= 59 q=-1.0 Lsize= 4443101kB time=01:06:13.64 bitrate=9159.8kbits/s    
video:4255181kB audio:186269kB subtitle:0kB other streams:0kB global headers:0kB muxing overhead: 0.037172%
[libx264 @ 0x3e575c0] frame I:398   Avg QP: 9.20  size:120081
[libx264 @ 0x3e575c0] frame P:98928 Avg QP:11.98  size: 43562
[libx264 @ 0x3e575c0] mb I  I16..4: 100.0%  0.0%  0.0%
[libx264 @ 0x3e575c0] mb P  I16..4: 10.4%  0.0%  0.0%  P16..4: 68.6%  0.0%  0.0%  0.0%  0.0%    skip:21.0%
[libx264 @ 0x3e575c0] coded y,uvDC,uvAC intra: 71.1% 49.6% 33.5% inter: 56.1% 22.5% 10.3%
[libx264 @ 0x3e575c0] i16 v,h,dc,p: 49% 21% 25%  6%
[libx264 @ 0x3e575c0] i8c dc,h,v,p: 45% 18% 29%  7%
[libx264 @ 0x3e575c0] kb/s:8773.75
patrick@debian:~/bin$

 



Info :


patrick@debian:~/bin$ ./ffmpeg -i Sortie.mkv
ffmpeg version N-75970-g5bd62a1 Copyright (c) 2000-2015 the FFmpeg developers
  built with gcc 4.9.2 (Debian 4.9.2-10)
  configuration: --prefix=/home/patrick/ffmpeg_build --pkg-config-flags=--static --extra-cflags=-I/home/patrick/ffmpeg_build/include --extra-ldflags=-L/home/patrick/ffmpeg_build/lib --bindir=/home/patrick/bin --enable-gpl --enable-libass --enable-libfdk-aac --enable-libfreetype --enable-libmp3lame --enable-libopus --enable-libtheora --enable-libvorbis --enable-libvpx --enable-libx264 --enable-libx265 --enable-nonfree
  libavutil      55.  3.100 / 55.  3.100
  libavcodec     57.  5.100 / 57.  5.100
  libavformat    57.  3.100 / 57.  3.100
  libavdevice    57.  0.100 / 57.  0.100
  libavfilter     6. 11.100 /  6. 11.100
  libswscale      4.  0.100 /  4.  0.100
  libswresample   2.  0.100 /  2.  0.100
  libpostproc    54.  0.100 / 54.  0.100
Input #0, matroska,webm, from 'Sortie.mkv':
  Metadata:
    ENCODER         : Lavf57.3.100
  Duration: 01:06:13.64, start: 0.000000, bitrate: 9159 kb/s
    Stream #0:0: Video: h264 (Constrained Baseline), yuv420p, 720x576 [SAR 64:45 DAR 16:9], 25 fps, 25 tbr, 1k tbn, 50 tbc (default)
    Metadata:
      ENCODER         : Lavc57.5.100 libx264
      DURATION        : 01:06:13.040000000
    Stream #0:1: Audio: ac3, 48000 Hz, 5.1(side), fltp, 384 kb/s (default)
    Metadata:
      DURATION        : 01:06:13.640000000
At least one output file must be specified
patrick@debian:~/bin$
 



tongue

EDIT: Une différence sur la DURATION non ?

REDIT:

At least one output file must be specified


Use ffprobe instead of ffmpeg command to get the video info.
ffprobe does not require an output file.
 

Dernière modification par golgot200 (15-10-2015 10:42:57)


L'ultime question ... l'intelligence a besoin de la bêtise pour s'affirmer, la beauté a besoin de la laideur pour resplendir, le courage nait dans la peur, les forts impressionnent au millieu des faibles, mais au final,... qui a donc besoin d'autant de connards ?

Hors ligne

#23 15-10-2015 10:43:16

kao
Modérateur
Distrib. : Testing
Noyau : Linux 4.quelquechose
(G)UI : Gnome 3
Inscription : 28-09-2012
Site Web

Re : Tests du H265 ou H264

Pas sur que le sharp soit nécessaire finalement, le débruiteur hqdn3d devrait suffire à lui tout seul.
Le sharp doit accentuer les transitions entre les pixels, il faut le manipuler avec précaution pour ne pas dénaturer le signal.

Tu sais à quoi correspond cette option : -sws_flags bicubic ? Je pense que c'est lié au Scale, mais comme tu fais du 0:0, je ne suis pas sur que ce soit nécessaire.

Hors ligne

#24 15-10-2015 11:17:46

golgot200
Membre
Lieu : AIN
Distrib. : Debian Jessie
Noyau : Linux debian 3.16.0-4-amd64
(G)UI : MATE
Inscription : 05-08-2007

Re : Tests du H265 ou H264

Je vais tester sans smile

L'ultime question ... l'intelligence a besoin de la bêtise pour s'affirmer, la beauté a besoin de la laideur pour resplendir, le courage nait dans la peur, les forts impressionnent au millieu des faibles, mais au final,... qui a donc besoin d'autant de connards ?

Hors ligne

#25 15-10-2015 11:22:31

golgot200
Membre
Lieu : AIN
Distrib. : Debian Jessie
Noyau : Linux debian 3.16.0-4-amd64
(G)UI : MATE
Inscription : 05-08-2007

Re : Tests du H265 ou H264

Et si pour ma vidéo, le sharp est indispensable pour une netteté des contours. Sans c'est jolie mais floue smile

L'ultime question ... l'intelligence a besoin de la bêtise pour s'affirmer, la beauté a besoin de la laideur pour resplendir, le courage nait dans la peur, les forts impressionnent au millieu des faibles, mais au final,... qui a donc besoin d'autant de connards ?

Hors ligne

Pied de page des forums