Debian-facile

Bienvenue sur Debian-Facile, site d'aide pour les nouveaux utilisateurs de Debian.

Vous n'êtes pas identifié(e).

#26 04-10-2016 12:34:49

golgot200
Membre
Lieu : AIN
Distrib. : Debian Jessie
Noyau : Linux debian 3.16.0-4-amd64
(G)UI : MATE
Inscription : 05-08-2007

Re : [Résolu] rippage dvd

Supprimes  -map 0:2 qui est eventuellement une deuxième bande audio  mais que tu n'as pas wink

Toi, tu as :


 Stream #0:1[0x80]: Audio: ac3, 48000 Hz, stereo, fltp, 224 kb/s
 



donc :


  -map 0:1
 



  -map 0:0 , c'est la vidéo wink

Dernière modification par golgot200 (04-10-2016 12:37:18)


L'ultime question ... l'intelligence a besoin de la bêtise pour s'affirmer, la beauté a besoin de la laideur pour resplendir, le courage nait dans la peur, les forts impressionnent au millieu des faibles, mais au final,... qui a donc besoin d'autant de connards ?

Hors ligne

#27 04-10-2016 14:04:27

golgot200
Membre
Lieu : AIN
Distrib. : Debian Jessie
Noyau : Linux debian 3.16.0-4-amd64
(G)UI : MATE
Inscription : 05-08-2007

Re : [Résolu] rippage dvd

Plus passe-partout :


mplayer -dumpstream dvd://1 &&  ffmpeg -i stream.dump -map 0:v -map 0:a -c:v libx264 -profile:v high -level 3.2 -crf 9  -maxrate 10M -bufsize 16M -pix_fmt yuv420p -sws_flags lanczos -vf "hqdn3d=1.5:1.5:6:6,unsharp=5:5:1.0:5:5:0.0,hue=b=0.1:s=0.7,noise=c0s=10:c1s=0:c2s=0:c0f=a+t" -r 25 -aspect "16:9" -s hd720 -trellis 2 -x264opts bframes=6:cabac=1 -movflags faststart -c:a ac3 -y FILM-HQ.mp4
 


L'ultime question ... l'intelligence a besoin de la bêtise pour s'affirmer, la beauté a besoin de la laideur pour resplendir, le courage nait dans la peur, les forts impressionnent au millieu des faibles, mais au final,... qui a donc besoin d'autant de connards ?

Hors ligne

#28 04-10-2016 16:41:59

debian-alain
Membre
Distrib. : DEBIAN JESSIE 8.5.0
Noyau : Linux 4.6.0-0.bpo.1-amd64
(G)UI : GNOME
Inscription : 31-08-2016

Re : [Résolu] rippage dvd

golgot200 a écrit :

Plus passe-partout :


mplayer -dumpstream dvd://1 &&  ffmpeg -i stream.dump -map 0:v -map 0:a -c:v libx264 -profile:v high -level 3.2 -crf 9  -maxrate 10M -bufsize 16M -pix_fmt yuv420p -sws_flags lanczos -vf "hqdn3d=1.5:1.5:6:6,unsharp=5:5:1.0:5:5:0.0,hue=b=0.1:s=0.7,noise=c0s=10:c1s=0:c2s=0:c0f=a+t" -r 25 -aspect "16:9" -s hd720 -trellis 2 -x264opts bframes=6:cabac=1 -movflags faststart -c:a ac3 -y FILM-HQ.mp4
 



176103Capturedu20161004163941.png

pardon , après redémarrage , tout va bien

reste à choisir la bonne piste ,  c'est où ?

Dernière modification par debian-alain (04-10-2016 16:49:44)

Hors ligne

#29 04-10-2016 17:20:20

golgot200
Membre
Lieu : AIN
Distrib. : Debian Jessie
Noyau : Linux debian 3.16.0-4-amd64
(G)UI : MATE
Inscription : 05-08-2007

Re : [Résolu] rippage dvd

big_smile

mais c'est quoi que tu utilises comme programme ? C'est quoi  la fenêtre de ton screen tongue

Tu lances bien la commande que je t'ai donné dans un terminal.

-map 0:v c'est la vidéo seule
-map 0:a c'est toute les bandes audios

ou tu peux faire à la place :

-map 0:0 la vidéo
-map 0:1 la première bande audio sera prise en compte
-map 0:2 ce sera la deuxième

Et les 3 à la fois ça donnera Vidéo + Bande audio 1 et Bande audio 2

Dernière modification par golgot200 (04-10-2016 17:23:39)


L'ultime question ... l'intelligence a besoin de la bêtise pour s'affirmer, la beauté a besoin de la laideur pour resplendir, le courage nait dans la peur, les forts impressionnent au millieu des faibles, mais au final,... qui a donc besoin d'autant de connards ?

Hors ligne

#30 04-10-2016 19:45:43

debian-alain
Membre
Distrib. : DEBIAN JESSIE 8.5.0
Noyau : Linux 4.6.0-0.bpo.1-amd64
(G)UI : GNOME
Inscription : 31-08-2016

Re : [Résolu] rippage dvd

mon programme en lecture c'est vlc

alain@debian:~$

mplayer -dumpstream dvd://3 &&  ffmpeg -i stream.dump -map 0:0 -map 0:a -c:v libx264 -profile:v high -level 3.2 -crf 9  -maxrate 10M -bufsize 16M -pix_fmt yuv420p -sws_flags lanczos -vf "hqdn3d=1.5:1.5:6:6,unsharp=5:5:1.0:5:5:0.0,hue=b=0.1:s=0.7,noise=c0s=10:c1s=0:c2s=0:c0f=a+t" -r 25 -aspect "16:9" -s hd720 -trellis 2 -x264opts bframes=6:cabac=1 -movflags faststart -c:a ac3 -y FILM-HQ.mp4


MPlayer SVN-r37375 (C) 2000-2013 MPlayer Team
Can't open joystick device /dev/input/js0: No such file or directory
Can't init input joystick
mplayer: could not connect to socket
mplayer: No such file or directory
Failed to open LIRC support. You will not be able to use your remote control.

Playing dvd://3.
There are 3 titles on this DVD.
There are 1 angles in this DVD title.

libdvdread: Attempting to retrieve all CSS keys
libdvdread: This can take a _long_ time, please be patient

libdvdread: Get key for /VIDEO_TS/VIDEO_TS.VOB at 0x00000138
libdvdread: Elapsed time 0
libdvdread: Get key for /VIDEO_TS/VTS_01_0.VOB at 0x0000019e
libdvdread: Elapsed time 0
libdvdread: Get key for /VIDEO_TS/VTS_01_1.VOB at 0x0001a2aa
libdvdread: Elapsed time 0
libdvdread: Get key for /VIDEO_TS/VTS_02_0.VOB at 0x0001f6ea
libdvdread: Elapsed time 0
libdvdread: Get key for /VIDEO_TS/VTS_02_1.VOB at 0x0001f737
libdvdread: Elapsed time 0
libdvdread: Get key for /VIDEO_TS/VTS_03_0.VOB at 0x000859f6
libdvdread: Elapsed time 0
libdvdread: Get key for /VIDEO_TS/VTS_03_1.VOB at 0x00085a43
libdvdread: Elapsed time 0
libdvdread: Found 3 VTS's
libdvdread: Elapsed time 0
audio stream: 0 format: ac3 (stereo) language: fr aid: 128.
number of audio channels on disk: 1.
subtitle ( sid ): 0 language: fr
number of subtitles on disk: 1
dump: 5195804672 bytes written (~99.9%)
dump: 5199056896 bytes written to 'stream.dump'.
Core dumped ;)

Exiting... (End of file)
ffmpeg version 2.6.9 Copyright (c) 2000-2016 the FFmpeg developers
  built with gcc 4.9.2 (Debian 4.9.2-10)
  configuration: --prefix=/usr --extra-cflags='-g -O2 -fstack-protector-strong -Wformat -Werror=format-security ' --extra-ldflags='-Wl,-z,relro' --cc='ccache cc' --enable-shared --enable-libmp3lame --enable-gpl --enable-nonfree --enable-libvorbis --enable-pthreads --enable-libfaac --enable-libxvid --enable-postproc --enable-x11grab --enable-libgsm --enable-libtheora --enable-libopencore-amrnb --enable-libopencore-amrwb --enable-libx264 --enable-libspeex --enable-nonfree --disable-stripping --enable-libvpx --enable-libschroedinger --disable-encoder=libschroedinger --enable-version3 --enable-libopenjpeg --enable-librtmp --enable-avfilter --enable-libfreetype --enable-libvo-aacenc --disable-decoder=amrnb --enable-libvo-amrwbenc --enable-libaacplus --libdir=/usr/lib/x86_64-linux-gnu --disable-vda --enable-libbluray --enable-libcdio --enable-gnutls --enable-frei0r --enable-openssl --enable-libass --enable-libopus --enable-fontconfig --enable-libpulse --disable-mips32r2 --disable-mipsdspr1 --disable-mipsdspr2 --enable-libvidstab --enable-libzvbi --enable-avresample --disable-htmlpages --disable-podpages --enable-libutvideo --enable-libfdk-aac --enable-libx265 --enable-libiec61883 --enable-vaapi --enable-libdc1394 --disable-altivec --shlibdir=/usr/lib/x86_64-linux-gnu
  libavutil      54. 20.100 / 54. 20.100
  libavcodec     56. 26.100 / 56. 26.100
  libavformat    56. 25.101 / 56. 25.101
  libavdevice    56.  4.100 / 56.  4.100
  libavfilter     5. 11.102 /  5. 11.102
  libavresample   2.  1.  0 /  2.  1.  0
  libswscale      3.  1.101 /  3.  1.101
  libswresample   1.  1.100 /  1.  1.100
  libpostproc    53.  3.100 / 53.  3.100
Input #0, mpeg, from 'stream.dump':
  Duration: 01:29:48.28, start: 0.360000, bitrate: 7719 kb/s
    Stream #0:0[0x1e0]: Video: mpeg2video (Main), yuv420p(tv), 720x576 [SAR 16:15 DAR 4:3], max. 8500 kb/s, 25 fps, 25 tbr, 90k tbn, 50 tbc
    Stream #0:1[0x80]: Audio: ac3, 48000 Hz, stereo, fltp, 192 kb/s
    Stream #0:2[0x20]: Subtitle: dvd_subtitle
[libx264 @ 0x19cabe0] using SAR=1/1
[libx264 @ 0x19cabe0] using cpu capabilities: MMX2 SSE2Fast SSSE3 SSE4.2 AVX
[libx264 @ 0x19cabe0] profile High, level 3.2
[libx264 @ 0x19cabe0] 264 - core 146 - H.264/MPEG-4 AVC codec - Copyleft 2003-2015 - http://www.videolan.org/x264.html - options: cabac=1 ref=3 deblock=1:0:0 analyse=0x3:0x113 me=hex subme=7 psy=1 psy_rd=1.00:0.00 mixed_ref=1 me_range=16 chroma_me=1 trellis=2 8x8dct=1 cqm=0 deadzone=21,11 fast_pskip=1 chroma_qp_offset=-2 threads=12 lookahead_threads=2 sliced_threads=0 nr=0 decimate=1 interlaced=0 bluray_compat=0 constrained_intra=0 bframes=6 b_pyramid=2 b_adapt=1 b_bias=0 direct=1 weightb=1 open_gop=0 weightp=2 keyint=250 keyint_min=25 scenecut=40 intra_refresh=0 rc_lookahead=40 rc=crf mbtree=1 crf=9.0 qcomp=0.60 qpmin=0 qpmax=69 qpstep=4 vbv_maxrate=10000 vbv_bufsize=16000 crf_max=0.0 nal_hrd=none filler=0 ip_ratio=1.40 aq=1:1.00
Output #0, mp4, to 'FILM-HQ.mp4':
  Metadata:
    encoder         : Lavf56.25.101
    Stream #0:0: Video: h264 (libx264) ([33][0][0][0] / 0x0021), yuv420p, 1280x720 [SAR 1:1 DAR 16:9], q=-1--1, max. 10000 kb/s, 25 fps, 12800 tbn, 25 tbc
    Metadata:
      encoder         : Lavc56.26.100 libx264
    Stream #0:1: Audio: ac3 ([165][0][0][0] / 0x00A5), 48000 Hz, stereo, fltp, 192 kb/s
    Metadata:
      encoder         : Lavc56.26.100 ac3
Stream mapping:
  Stream #0:0 -> #0:0 (mpeg2video (native) -> h264 (libx264))
  Stream #0:1 -> #0:1 (ac3 (native) -> ac3 (native))
Press [q] to stop, [?] for help
[mp4 @ 0x19c9a20] Starting second pass: moving the moov atom to the beginning of the file
q
frame=110170 fps= 30 q=-1.0 Lsize= 5486083kB time=01:13:26.72 bitrate=10198.5kbits/s    
video:5379555kB audio:103282kB subtitle:0kB other streams:0kB global headers:0kB muxing overhead: 0.059200%
[libx264 @ 0x19cabe0] frame I:812   Avg QP: 8.28  size:120687
[libx264 @ 0x19cabe0] frame P:82303 Avg QP:10.36  size: 56825
[libx264 @ 0x19cabe0] frame B:27055 Avg QP:12.03  size: 27122
[libx264 @ 0x19cabe0] consecutive B-frames: 51.7% 46.4%  0.9%  0.5%  0.4%  0.1%  0.0%
[libx264 @ 0x19cabe0] mb I  I16..4:  1.8% 84.9% 13.4%
[libx264 @ 0x19cabe0] mb P  I16..4:  0.1% 14.2%  0.6%  P16..4: 32.1% 27.7% 21.0%  0.0%  0.0%    skip: 4.3%
[libx264 @ 0x19cabe0] mb B  I16..4:  0.0%  0.6%  0.0%  B16..8: 38.8% 13.5%  6.7%  direct:20.2%  skip:20.1%  L0:36.2% L1:50.4% BI:13.4%
[libx264 @ 0x19cabe0] 8x8 transform intra:94.5% inter:25.0%
[libx264 @ 0x19cabe0] coded y,uvDC,uvAC intra: 99.2% 23.7% 18.9% inter: 59.1% 9.9% 1.8%
[libx264 @ 0x19cabe0] i16 v,h,dc,p:  7% 13% 60% 21%
[libx264 @ 0x19cabe0] i8 v,h,dc,ddl,ddr,vr,hd,vl,hu:  6%  8% 72%  2%  3%  2%  2%  2%  3%
[libx264 @ 0x19cabe0] i4 v,h,dc,ddl,ddr,vr,hd,vl,hu: 12% 17% 44%  5%  7%  3%  5%  3%  4%
[libx264 @ 0x19cabe0] i8c dc,h,v,p: 84%  7%  7%  2%
[libx264 @ 0x19cabe0] Weighted P-Frames: Y:1.5% UV:0.5%
[libx264 @ 0x19cabe0] ref P L0: 72.4%  3.9% 15.9%  7.7%  0.1%
[libx264 @ 0x19cabe0] ref B L0: 87.2% 12.7%  0.1%
[libx264 @ 0x19cabe0] ref B L1: 99.8%  0.2%
[libx264 @ 0x19cabe0] kb/s:10000.30
Received signal 2: terminating.
alain@debian:~$ q
bash: q : commande introuvable
alain@debian:~$



154465Capturedu20161004194027.png


et en plus , le mp4 n'est même pas complet :

784185Capturedu20161004194120.png

alors que , avec handbrake , pour le meme disque  :

399228Capturedu20161005085427.png

et en mp4 et en plus , le film est complet :

366565Capturedu20161005085509.png



Edit à toto :
Isolée la commande proprement dite dans la balise Commande user.

Dernière modification par debian-alain (05-10-2016 08:57:48)

Hors ligne

Pied de page des forums