Debian-facile

Bienvenue sur Debian-Facile, site d'aide pour les nouveaux utilisateurs de Debian.

Vous n'êtes pas identifié(e).

#1 30-07-2014 16:53:53

lagrenouille
Adhérent(e)
Lieu : toulouse
Distrib. : debian stretch
Noyau : Debian -amd64 - noyau.4.6.0.1-
(G)UI : xfce4 - bépo_TypeMatrix
Inscription : 28-03-2012
Site Web

[Résolu] convertir une vidéo

salut la foule

je voudrai convertir unr petite vidéo pour la mettre sur un site web
c'est un point .wmv et ça ne passe pas, il me faut  du .flv , à la rigueur du .avi

ffmpeg probablement, merci de vos lumières smile

Dernière modification par lagrenouille (17-09-2014 14:21:22)


Celui qui ignore l’histoire se retrouvera sur une rive solitaire,d’où il épiera en vain les lumières d’un bateau.
Ce bateau ne viendra pas.
---------------------------
auto-hébergement chezlagrenouille.fr

En ligne

#2 30-07-2014 19:43:18

kao
Modérateur
Distrib. : Testing
Noyau : Linux 4.quelquechose
(G)UI : Gnome 3
Inscription : 28-09-2012
Site Web

Re : [Résolu] convertir une vidéo

A ta place j'encoderai en VP8  dans un webm, ou dans en x264 dans un mp4.
Vaut mieux fuir le flv.
Tu trouvera tout ce qu'il te faut ici pour le faire avec ffmpeg:
https://debian-facile.org/doc:media:ffm … deo-en-vp8

Hors ligne

#3 30-07-2014 21:32:41

lagrenouille
Adhérent(e)
Lieu : toulouse
Distrib. : debian stretch
Noyau : Debian -amd64 - noyau.4.6.0.1-
(G)UI : xfce4 - bépo_TypeMatrix
Inscription : 28-03-2012
Site Web

Re : [Résolu] convertir une vidéo

merci, je vais y aller voir ça

Dernière modification par lagrenouille (30-07-2014 22:15:39)


Celui qui ignore l’histoire se retrouvera sur une rive solitaire,d’où il épiera en vain les lumières d’un bateau.
Ce bateau ne viendra pas.
---------------------------
auto-hébergement chezlagrenouille.fr

En ligne

#4 02-08-2014 09:19:40

lagrenouille
Adhérent(e)
Lieu : toulouse
Distrib. : debian stretch
Noyau : Debian -amd64 - noyau.4.6.0.1-
(G)UI : xfce4 - bépo_TypeMatrix
Inscription : 28-03-2012
Site Web

Re : [Résolu] convertir une vidéo

je galère pour transformer une video .wmv en mp4 ou avi avec ffmpeg
et je n'arrive pas a décoller en graphique avec winff, suis naze pour l'instant yikes

hhheeeelllppppp!!!!!!

ccccccrrrrôôôôôâaaaaaaaaaa!

Celui qui ignore l’histoire se retrouvera sur une rive solitaire,d’où il épiera en vain les lumières d’un bateau.
Ce bateau ne viendra pas.
---------------------------
auto-hébergement chezlagrenouille.fr

En ligne

#5 02-08-2014 10:05:49

Herbert west
Membre
Distrib. : stable 64 mise a jour regulièrement
Noyau : 3.x.x-x-amd64
(G)UI : gnome 3
Inscription : 17-05-2012

Re : [Résolu] convertir une vidéo

salut essaye avidemux . je ne suis pas partisant de ffmpeg , et autres  qui m'ont fait longtemps souffrir roll

I72600k / radeonhd 6870 /asus p8p67 pro b3/syncmaster 3D Samsung 23p displayport
debian stable 64
Linux derniereversion 3.x.x-x-amd64
" Y a t il un sous-sol dans votre appartement ? "

Hors ligne

#6 02-08-2014 11:02:35

lagrenouille
Adhérent(e)
Lieu : toulouse
Distrib. : debian stretch
Noyau : Debian -amd64 - noyau.4.6.0.1-
(G)UI : xfce4 - bépo_TypeMatrix
Inscription : 28-03-2012
Site Web

Re : [Résolu] convertir une vidéo

c'est sympa mais:
avidemux ne fait plus partie des paquets debian stable, et je reste avec debian sans installer de package externe  big_smile

mais bon, j'ai voulu faire compliquer avec des lignes de commandes à n'en plus finir et une vidéo de mauvaise qualitée
donc je fais au plus simple et ça marche, bien que la mauvaise qualité  reste

ffmpeg -i cher_camarade_marinus.wmv  cher_camarade_marinus.avi



je ferai d'autres essais avec des bonnes vidéos, d'ailleurs ce  format wmv est zarbi, je sais pas d'où ça vient cette chose là big_smile

Dernière modification par lagrenouille (02-08-2014 11:57:35)


Celui qui ignore l’histoire se retrouvera sur une rive solitaire,d’où il épiera en vain les lumières d’un bateau.
Ce bateau ne viendra pas.
---------------------------
auto-hébergement chezlagrenouille.fr

En ligne

#7 02-08-2014 15:59:03

kao
Modérateur
Distrib. : Testing
Noyau : Linux 4.quelquechose
(G)UI : Gnome 3
Inscription : 28-09-2012
Site Web

Re : [Résolu] convertir une vidéo

Pour voir le contenu de la vidéo, donne nous le retour de la commande:

ffmpeg -i cher_camarade_marinus.wmv



La vidéo, si tu souhaites la mettre sur une page web, tu l'as veux dans quel format, quelle résolution, quelle qualité, quelle taille de fichier ? Même question pour le son wink
Et regarde cette page pour l'intégration d'une vidéo dans un page webm html5:
http://www.alsacreations.com/article/li … heora.html

Avec FFmpeg, on peut tout faire, il faut juste faire un choix parce qu'il y a beaucoup, beaucoup, de possibilité big_smile

Hors ligne

#8 02-08-2014 17:42:56

lagrenouille
Adhérent(e)
Lieu : toulouse
Distrib. : debian stretch
Noyau : Debian -amd64 - noyau.4.6.0.1-
(G)UI : xfce4 - bépo_TypeMatrix
Inscription : 28-03-2012
Site Web

Re : [Résolu] convertir une vidéo

Bon, j'étais parti ramasser mes patates au jardin, car ce con d'ordi ne veut pas s'en mêler lol
voila la réponse à la recherche que tu me demandes


momo@agamemnon:~/bidouille/convertion_vidéos$ ffmpeg -i cher_camarade_marinus.wmv
ffmpeg version 0.8.13-6:0.8.13-1, Copyright (c) 2000-2014 the Libav developers
  built on Jun 28 2014 17:50:37 with gcc 4.7.2
*** THIS PROGRAM IS DEPRECATED ***
This program is only provided for compatibility and will be removed in a future release. Please use avconv instead.

Seems stream 1 codec frame rate differs from container frame rate: 1000.00 (1000/1) -> 25.00 (25/1)
Input #0, asf, from 'cher_camarade_marinus.wmv':
  Metadata:
    title           : MARINUS VAN DER LUBBE
    artist          : Barbara Serré-Becherini
    copyright       : ©BAYA
    WM/ParentalRating: 1000
    WMFSDKVersion   : 9.00.00.3250
    WMFSDKNeeded    : 0.0.0.0000
    IsVBR           : 1
    VBR Peak        : 511
    Buffer Average  : 117
  Duration: 00:18:19.95, start: 0.000000, bitrate: 2493 kb/s
    Stream #0.0(eng): Audio: wmav2, 44100 Hz, 2 channels, s16, 128 kb/s
    Stream #0.1(eng): Video: wmv3 (Main), yuv420p, 720x480, 2815 kb/s, 25 tbr, 1k tbn, 1k tbc
At least one output file must be specified
 



je voudrai du mp4, en general je fais des liens avec les iframes, là je trouve la qualité médiocre, et je voulais mieux, j'ai pas fait mieux sad

il me demande d'installer avconv que je connais encore moins que ffmpeg yikes

j'ai fait un .ogv  avec Oggconvert, ça marche correctement, mais j'ai pas amélioré l'original

je sais que les possibilités de la ligne de commande sont infinis, j'apprends tous les jours, pour les vidéos, je connais rien, je m'y intéresse depuis hier, alors je prends mon temps smile

Dernière modification par lagrenouille (02-08-2014 19:21:43)


Celui qui ignore l’histoire se retrouvera sur une rive solitaire,d’où il épiera en vain les lumières d’un bateau.
Ce bateau ne viendra pas.
---------------------------
auto-hébergement chezlagrenouille.fr

En ligne

#9 02-08-2014 23:40:40

kao
Modérateur
Distrib. : Testing
Noyau : Linux 4.quelquechose
(G)UI : Gnome 3
Inscription : 28-09-2012
Site Web

Re : [Résolu] convertir une vidéo

Le wmv c'est le pire des formats, c'est du made in Microsoft, format à fuir en toutes circonstances smile
Pour ta vidéo,à ta place j'essayerai quelque chose comme ça :

ffmpeg -i cher_camarade_marinus.wmv -map 0:1 -map 0:0 -c:v:0 libx264 -preset slow -crf 22 -c:a libmp3lame -ar 44100 -ac 2 -ab 128k  cher_camarade_marinus.mp4



-map 0:1 -map 0:0 Pour remettre les flux dans l'ordre.
-c:v:0 libx264 -preset slow -crf 22 Pour convertir la vidéo en h264
-c:a libmp3lame -ar 44100 -ac 2 -ab 128k Pour convertir l'audio en mp3

Voilà, en espérant que ffmpeg s'en sorte avec le wmv.

Hors ligne

#10 03-08-2014 00:54:43

lagrenouille
Adhérent(e)
Lieu : toulouse
Distrib. : debian stretch
Noyau : Debian -amd64 - noyau.4.6.0.1-
(G)UI : xfce4 - bépo_TypeMatrix
Inscription : 28-03-2012
Site Web

Re : [Résolu] convertir une vidéo

merci
là si ça marche pas je suis kao big_smile

et voila, au tapis je vais me coucher:)

Dernière modification par lagrenouille (03-08-2014 01:25:47)


Celui qui ignore l’histoire se retrouvera sur une rive solitaire,d’où il épiera en vain les lumières d’un bateau.
Ce bateau ne viendra pas.
---------------------------
auto-hébergement chezlagrenouille.fr

En ligne

#11 03-08-2014 09:15:26

lagrenouille
Adhérent(e)
Lieu : toulouse
Distrib. : debian stretch
Noyau : Debian -amd64 - noyau.4.6.0.1-
(G)UI : xfce4 - bépo_TypeMatrix
Inscription : 28-03-2012
Site Web

Re : [Résolu] convertir une vidéo

ya quekchose qui cloche la d'dans, j'y retourne immédiatement lol

Je lirai bien un article qui explique  toutes less options, pour savoir à quoi elles servent smile

momo@agamemnon:~$ ffmpeg -i cher_camarade_marinus.wmv -map 0:1 -map 0:0 -c:v:0 libx264 -preset slow -crf 22 -c:a libmp3lame -ar 44100 -ac 2 -ab 128k  cher_camarade_marinus.mp4
ffmpeg version 0.8.13-6:0.8.13-1, Copyright (c) 2000-2014 the Libav developers
  built on Jun 28 2014 17:50:37 with gcc 4.7.2
*** THIS PROGRAM IS DEPRECATED ***
This program is only provided for compatibility and will be removed in a future release. Please use avconv instead.

Seems stream 1 codec frame rate differs from container frame rate: 1000.00 (1000/1) -> 25.00 (25/1)
Input #0, asf, from 'cher_camarade_marinus.wmv':
  Metadata:
    title           : MARINUS VAN DER LUBBE
    artist          : Barbara Serré-Becherini
    copyright       : ©BAYA
    WM/ParentalRating: 1000
    WMFSDKVersion   : 9.00.00.3250
    WMFSDKNeeded    : 0.0.0.0000
    IsVBR           : 1
    VBR Peak        : 511
    Buffer Average  : 117
  Duration: 00:18:19.95, start: 0.000000, bitrate: 2493 kb/s
    Stream #0.0(eng): Audio: wmav2, 44100 Hz, 2 channels, s16, 128 kb/s
    Stream #0.1(eng): Video: wmv3 (Main), yuv420p, 720x480, 2815 kb/s, 25 tbr, 1k tbn, 1k tbc
Unrecognized option 'c:v:0'
Failed to set value 'libx264' for option 'c:v:0'

Dernière modification par lagrenouille (03-08-2014 09:17:14)


Celui qui ignore l’histoire se retrouvera sur une rive solitaire,d’où il épiera en vain les lumières d’un bateau.
Ce bateau ne viendra pas.
---------------------------
auto-hébergement chezlagrenouille.fr

En ligne

#12 03-08-2014 09:52:21

kao
Modérateur
Distrib. : Testing
Noyau : Linux 4.quelquechose
(G)UI : Gnome 3
Inscription : 28-09-2012
Site Web

Re : [Résolu] convertir une vidéo

Faut peut être juste virer le :0 de -c:v:0 pour pas rentrer dans le jeux de la numérotation. Ce qui donne:

ffmpeg -i cher_camarade_marinus.wmv -map 0:1 -map 0:0 -c:v libx264 -preset slow -crf 22 -c:a libmp3lame -ar 44100 -ac 2 -ab 128k  cher_camarade_marinus.mp4


Si ça ne marche pas là aussi tu peux essayer sans le mapping:

ffmpeg -i cher_camarade_marinus.wmv -c:v libx264 -preset slow -crf 22 -c:a libmp3lame -ar 44100 -ac 2 -ab 128k  cher_camarade_marinus.mp4

Hors ligne

#13 03-08-2014 10:11:55

lagrenouille
Adhérent(e)
Lieu : toulouse
Distrib. : debian stretch
Noyau : Debian -amd64 - noyau.4.6.0.1-
(G)UI : xfce4 - bépo_TypeMatrix
Inscription : 28-03-2012
Site Web

Re : [Résolu] convertir une vidéo

Ça merdouille sec, y veut rien savoir

Unrecognized option 'c:v'
Failed to set value 'libx680' for option 'c:v'




Unrecognized option 'c:'
Failed to set value 'libx264' for option 'c:'



etc... etc... chaque fois que je supprime quelque chose, c'est un autre message

là je pars manger en famille, je verrai plus tard, faut que je me documente pour comprendre mieux
parceque ça m'eeeeeeeeeennnnnnnneeeeeeeeeeeeeeeeeeeeerrrrrrrrrrrrrrvvvvvvvvvvvvvvvvveeeeeeeeeeeeeeeeeeeeeee!!:lol:


Celui qui ignore l’histoire se retrouvera sur une rive solitaire,d’où il épiera en vain les lumières d’un bateau.
Ce bateau ne viendra pas.
---------------------------
auto-hébergement chezlagrenouille.fr

En ligne

#14 03-08-2014 10:33:21

kao
Modérateur
Distrib. : Testing
Noyau : Linux 4.quelquechose
(G)UI : Gnome 3
Inscription : 28-09-2012
Site Web

Re : [Résolu] convertir une vidéo

Tu peux, peut être, séparer l'audio et la vidéo pour voir sur quoi ça bute.

Extraire la vidéo:

ffmpeg -i cher_camarade_marinus.wmv -map 0:1  -c:v libx264 -preset slow -crf 22   cher_camarade_marinus.mp4



Extraire juste l'audio

ffmpeg -i cher_camarade_marinus.wmv -map 0:0 -c:a libmp3lame -ar 44100 -ac 2 -ab 128k  cher_camarade_marinus.mp3



Tu peux aussi remplacer -c:a par -acodec et -c:v par -vcodec au cas ou.( même si je ni crois pas trop).

Hors ligne

#15 03-08-2014 18:47:38

lagrenouille
Adhérent(e)
Lieu : toulouse
Distrib. : debian stretch
Noyau : Debian -amd64 - noyau.4.6.0.1-
(G)UI : xfce4 - bépo_TypeMatrix
Inscription : 28-03-2012
Site Web

Re : [Résolu] convertir une vidéo

ok
aptès un bon repas ça repars mieux, voila ce qui a marché
je vais tacher d'en apprendre plus sur les vidéos sous linux et pour le web. promis:)

l'extraction de l'audio marche aussi


ffmpeg -i cher_camarade_marinus.wmv -map 0:1 -map 0:0   -preset slow -crf 22 -acodec libmp3lame -ar 44100 -ac 2 -ab 128k  cher_camarade_marinus.mp4


ffmpeg version 0.8.13-6:0.8.13-1, Copyright (c) 2000-2014 the Libav developers
  built on Jun 28 2014 17:50:37 with gcc 4.7.2
*** THIS PROGRAM IS DEPRECATED ***
This program is only provided for compatibility and will be removed in a future release. Please use avconv instead.

Seems stream 1 codec frame rate differs from container frame rate: 1000.00 (1000/1) -> 25.00 (25/1)
Input #0, asf, from 'cher_camarade_marinus.wmv':
  Metadata:
    title           : MARINUS VAN DER LUBBE
    artist          : Barbara Serré-Becherini
    copyright       : ©BAYA
    WM/ParentalRating: 1000
    WMFSDKVersion   : 9.00.00.3250
    WMFSDKNeeded    : 0.0.0.0000
    IsVBR           : 1
    VBR Peak        : 511
    Buffer Average  : 117
  Duration: 00:18:19.95, start: 0.000000, bitrate: 2493 kb/s
    Stream #0.0(eng): Audio: wmav2, 44100 Hz, 2 channels, s16, 128 kb/s
    Stream #0.1(eng): Video: wmv3 (Main), yuv420p, 720x480, 2815 kb/s, 25 tbr, 1k tbn, 1k tbc
Unable to find a suitable output format for 'libx264'
momo@agamemnon:~/WEB/ARTICLES-INFORMATIQUE-MOMO/travaux_web-ligne de commandes pour web/bidouille/convertion_vidéos$ ffmpeg -i cher_camarade_marinus.wmv -map 0:1 -map 0:0   -preset slow -crf 22 -acodec libmp3lame -ar 44100 -ac 2 -ab 128k  cher_camarade_marinus.mp4
ffmpeg version 0.8.13-6:0.8.13-1, Copyright (c) 2000-2014 the Libav developers
  built on Jun 28 2014 17:50:37 with gcc 4.7.2
*** THIS PROGRAM IS DEPRECATED ***
This program is only provided for compatibility and will be removed in a future release. Please use avconv instead.

Seems stream 1 codec frame rate differs from container frame rate: 1000.00 (1000/1) -> 25.00 (25/1)
Input #0, asf, from 'cher_camarade_marinus.wmv':
  Metadata:
    title           : MARINUS VAN DER LUBBE
    artist          : Barbara Serré-Becherini
    copyright       : ©BAYA
    WM/ParentalRating: 1000
    WMFSDKVersion   : 9.00.00.3250
    WMFSDKNeeded    : 0.0.0.0000
    IsVBR           : 1
    VBR Peak        : 511
    Buffer Average  : 117
  Duration: 00:18:19.95, start: 0.000000, bitrate: 2493 kb/s
    Stream #0.0(eng): Audio: wmav2, 44100 Hz, 2 channels, s16, 128 kb/s
    Stream #0.1(eng): Video: wmv3 (Main), yuv420p, 720x480, 2815 kb/s, 25 tbr, 1k tbn, 1k tbc
File 'cher_camarade_marinus.mp4' already exists. Overwrite ? [y/N] y
[buffer @ 0x1be7000] w:720 h:480 pixfmt:yuv420p
[libx264 @ 0x1be3e60] using cpu capabilities: MMX2 SSE2Fast SSSE3 FastShuffle SSE4.2 AVX
[libx264 @ 0x1be3e60] profile Main, level 3.0
[libx264 @ 0x1be3e60] 264 - core 123 r2189 35cf912 - H.264/MPEG-4 AVC codec - Copyleft 2003-2012 - http://www.videolan.org/x264.html - options: cabac=1 ref=5 deblock=1:0:0 analyse=0x1:0x111 me=umh subme=8 psy=1 psy_rd=1.00:0.00 mixed_ref=0 me_range=16 chroma_me=1 trellis=1 8x8dct=0 cqm=0 deadzone=21,11 fast_pskip=1 chroma_qp_offset=-2 threads=1 sliced_threads=0 nr=0 decimate=1 interlaced=0 bluray_compat=0 constrained_intra=0 bframes=3 b_pyramid=0 b_adapt=2 b_bias=0 direct=3 weightb=0 open_gop=1 weightp=2 keyint=250 keyint_min=25 scenecut=40 intra_refresh=0 rc_lookahead=50 rc=crf mbtree=1 crf=22.0 qcomp=0.60 qpmin=0 qpmax=69 qpstep=4 ip_ratio=1.25 aq=1:1.00
Output #0, mp4, to 'cher_camarade_marinus.mp4':
  Metadata:
    title           : MARINUS VAN DER LUBBE
    artist          : Barbara Serré-Becherini
    copyright       : ©BAYA
    WM/ParentalRating: 1000
    WMFSDKVersion   : 9.00.00.3250
    WMFSDKNeeded    : 0.0.0.0000
    IsVBR           : 1
    VBR Peak        : 511
    Buffer Average  : 117
    encoder         : Lavf53.21.1
    Stream #0.0(eng): Video: libx264, yuv420p, 720x480, q=-1--1, 25 tbn, 25 tbc
    Stream #0.1(eng): Audio: libmp3lame, 44100 Hz, 2 channels, s16, 128 kb/s
Stream mapping:
  Stream #0.1 -> #0.0
  Stream #0.0 -> #0.1
Press ctrl-c to stop encoding
frame=27499 fps= 21 q=27.0 Lsize=  256085kB time=1099.92 bitrate=1907.3kbits/s    
video:238207kB audio:17187kB global headers:0kB muxing overhead 0.270440%
frame I:168   Avg QP:22.82  size: 32338
[libx264 @ 0x1be3e60] frame P:13737 Avg QP:24.87  size: 11890
[libx264 @ 0x1be3e60] frame B:13594 Avg QP:28.49  size:  5528
[libx264 @ 0x1be3e60] consecutive B-frames: 20.2% 32.3% 28.5% 19.1%
[libx264 @ 0x1be3e60] mb I  I16..4: 39.3%  0.0% 60.7%
[libx264 @ 0x1be3e60] mb P  I16..4:  4.5%  0.0%  4.2%  P16..4: 55.5% 12.0%  5.6%  0.0%  0.0%    skip:18.1%
[libx264 @ 0x1be3e60] mb B  I16..4:  1.3%  0.0%  1.3%  B16..8: 51.9%  8.1%  2.0%  direct: 7.1%  skip:28.2%  L0:50.8% L1:37.7% BI:11.6%
[libx264 @ 0x1be3e60] direct mvs  spatial:99.9% temporal:0.1%
[libx264 @ 0x1be3e60] coded y,uvDC,uvAC intra: 57.7% 6.8% 2.1% inter: 30.7% 1.6% 0.4%
[libx264 @ 0x1be3e60] i16 v,h,dc,p: 37% 39% 14% 11%
[libx264 @ 0x1be3e60] i4 v,h,dc,ddl,ddr,vr,hd,vl,hu:  7% 47% 13%  3%  4%  4%  6%  5% 11%
[libx264 @ 0x1be3e60] i8c dc,h,v,p: 88%  9%  3%  0%
[libx264 @ 0x1be3e60] Weighted P-Frames: Y:11.2% UV:0.7%
[libx264 @ 0x1be3e60] ref P L0: 56.4% 11.5% 13.6%  6.9%  5.7%  5.4%  0.6%
[libx264 @ 0x1be3e60] ref B L0: 76.2% 10.9%  7.7%  5.2%
[libx264 @ 0x1be3e60] kb/s:1774.05
 

Dernière modification par lagrenouille (03-08-2014 18:49:09)


Celui qui ignore l’histoire se retrouvera sur une rive solitaire,d’où il épiera en vain les lumières d’un bateau.
Ce bateau ne viendra pas.
---------------------------
auto-hébergement chezlagrenouille.fr

En ligne

#16 08-08-2014 09:22:23

Herbert west
Membre
Distrib. : stable 64 mise a jour regulièrement
Noyau : 3.x.x-x-amd64
(G)UI : gnome 3
Inscription : 17-05-2012

Re : [Résolu] convertir une vidéo

au passage c'est un peu du chinois ,quand meme ; essaye des frontend de ffmpeg , mais la aussi c'est pas la joie

I72600k / radeonhd 6870 /asus p8p67 pro b3/syncmaster 3D Samsung 23p displayport
debian stable 64
Linux derniereversion 3.x.x-x-amd64
" Y a t il un sous-sol dans votre appartement ? "

Hors ligne

#17 17-08-2014 01:36:51

Mhild
Membre
Inscription : 22-07-2014

Re : [Résolu] convertir une vidéo

Vlc fait l'affaire aussi pour la conversion de fichiers

(voir le site de videolan pour la conversion en ligne de commande)

Dernière modification par Mhild (17-08-2014 01:41:17)

Hors ligne

#18 17-08-2014 11:48:36

lagrenouille
Adhérent(e)
Lieu : toulouse
Distrib. : debian stretch
Noyau : Debian -amd64 - noyau.4.6.0.1-
(G)UI : xfce4 - bépo_TypeMatrix
Inscription : 28-03-2012
Site Web

Re : [Résolu] convertir une vidéo

j'ai essayé vlc, il ne fait pas tout, mais c'est pas mal
je vais aller voir ce lien (je crois que j'y suis passé):)

Celui qui ignore l’histoire se retrouvera sur une rive solitaire,d’où il épiera en vain les lumières d’un bateau.
Ce bateau ne viendra pas.
---------------------------
auto-hébergement chezlagrenouille.fr

En ligne

#19 16-09-2014 11:38:42

cincea
Membre
Distrib. : Wheezy
Noyau : Linux 3.2.0-4-amd64
(G)UI : GNOME
Inscription : 16-09-2014

Re : [Résolu] convertir une vidéo

Bonjour à tous,

Pour convertir facilement les videos sous Debian, j'ai adopté HandBrake :https://handbrake.fr/.

Un HowTo en francais est disponible à cette adresse : http://slauncha.dyndns.org/index.php?ar … ian-wheezy

Je viens de l'installer de nouveau sur mon poste et ca s'installe tres bien (~15/20min)

En espérant qu'il répondra à tes besoins.

Hors ligne

#20 16-09-2014 14:49:31

lagrenouille
Adhérent(e)
Lieu : toulouse
Distrib. : debian stretch
Noyau : Debian -amd64 - noyau.4.6.0.1-
(G)UI : xfce4 - bépo_TypeMatrix
Inscription : 28-03-2012
Site Web

Re : [Résolu] convertir une vidéo

Merci. On laisse tomber cette bouse

Celui qui ignore l’histoire se retrouvera sur une rive solitaire,d’où il épiera en vain les lumières d’un bateau.
Ce bateau ne viendra pas.
---------------------------
auto-hébergement chezlagrenouille.fr

En ligne

#21 16-09-2014 21:31:14

smolski
administrateur quasi...modo
Lieu : AIN
Distrib. : 8 (jessie) 64 bits + backports
Noyau : 4.6.0-0.bpo.1-amd64
(G)UI : gnome 3.14.1
Inscription : 21-10-2008

Re : [Résolu] convertir une vidéo

HandBrake est dans les depots debian depuis wheezy (qu'on me chuchote à l'oreille sur irc..) donc, un truc pas louche du tout, contrairement à ma première impression. smile

"Définition d'eric besson : S'il fallait en chier des tonnes pour devenir ministre, il aurait 2 trous du cul." - JP Douillon
"L'utopie ne signifie pas l'irréalisable, mais l'irréalisée." - T Monod (source :  La zone de Siné)
"Je peux rire de tout mais pas avec n'importe qui." - P Desproges
"saque eud dun" (patois chtimi : fonce dedans)

Hors ligne

#22 16-09-2014 21:37:50

paskal
autobahn
Lieu : ailleurs
Inscription : 14-06-2011
Site Web

Re : [Résolu] convertir une vidéo

smolski a écrit :

HandBrake est dans les depots debian depuis wheezy

Dans les backports, en fait.  smile


I'd love to change the world
But I don't know what to do
So I'll leave it up to you...

logo-sur-fond.png

Hors ligne

#23 16-09-2014 23:15:02

lagrenouille
Adhérent(e)
Lieu : toulouse
Distrib. : debian stretch
Noyau : Debian -amd64 - noyau.4.6.0.1-
(G)UI : xfce4 - bépo_TypeMatrix
Inscription : 28-03-2012
Site Web

Re : [Résolu] convertir une vidéo

merci de l'aide, mais

j'ai fait cet après-midi un

apt-cache search handbrake


handbrake - versatile DVD ripper and video transcoder (GTK GUI)
handbrake-cli - versatile DVD ripper and video transcoder (command line)
handbrake-dbg - handbrake -- debugging symbols



puis install, et voila,

apt-get install handbrake handbrake-cli handbrake-dbg


Lecture des listes de paquets... Fait
Construction de l'arbre des dépendances      
Lecture des informations d'état... Fait
Certains paquets ne peuvent être installés. Ceci peut signifier
que vous avez demandé l'impossible, ou bien, si vous utilisez
la distribution unstable, que certains paquets n'ont pas encore
été créés ou ne sont pas sortis d'Incoming.
L'information suivante devrait vous aider à résoudre la situation :

Les paquets suivants contiennent des dépendances non satisfaites :
 handbrake : Dépend: libavcodec54 (>= 6:9.1-1) mais ne sera pas installé ou
                      libavcodec-extra-54 (>= 6:9.10) mais ne sera pas installé
             Dépend: libavformat54 (>= 6:9.1-1) mais ne sera pas installé
             Dépend: libgstreamer-plugins-base1.0-0 (>= 1.0.0) mais ne sera pas installé
             Dépend: libswscale2 (>= 6:9.1-1) mais 6:0.8.15-1 devra être installé
             Recommande: gstreamer1.0-libav mais ne sera pas installé
             Recommande: gstreamer1.0-pulseaudio mais ne sera pas installé ou
                         gstreamer1.0-alsa mais ne sera pas installé
             Recommande: gstreamer1.0-x mais ne sera pas installé
             Casse: libdvdread4 (< 4.2.0+20120521-3) mais 4.2.0+20120521-2 devra être installé
 handbrake-cli : Dépend: libavcodec54 (>= 6:9.1-1) mais ne sera pas installé ou
                          libavcodec-extra-54 (>= 6:9.10) mais ne sera pas installé
                 Dépend: libavformat54 (>= 6:9.1-1) mais ne sera pas installé
                 Dépend: libswscale2 (>= 6:9.1-1) mais 6:0.8.15-1 devra être installé
                 Casse: libdvdread4 (< 4.2.0+20120521-3) mais 4.2.0+20120521-2 devra être installé
E: Impossible de corriger les problèmes, des paquets défectueux sont en mode « garder en l'état ».




Ça me gonfle,  d'autant que j'ai pas encore réussi à regler mes problèmes avec ssh et rsync.
ppppfffffffiiiii, ça suffit, je me couche


Celui qui ignore l’histoire se retrouvera sur une rive solitaire,d’où il épiera en vain les lumières d’un bateau.
Ce bateau ne viendra pas.
---------------------------
auto-hébergement chezlagrenouille.fr

En ligne

#24 17-09-2014 08:36:56

paskal
autobahn
Lieu : ailleurs
Inscription : 14-06-2011
Site Web

Re : [Résolu] convertir une vidéo

Il faut que tu mettes les dépôts backports dans ton sources.list : https://debian-facile.org/doc:systeme:a … ist:stable
Puis :

apt-get update
apt-get install -t wheezy-backports handbrake handbrake-cli handbrake-dbg


I'd love to change the world
But I don't know what to do
So I'll leave it up to you...

logo-sur-fond.png

Hors ligne

#25 17-09-2014 08:46:07

lagrenouille
Adhérent(e)
Lieu : toulouse
Distrib. : debian stretch
Noyau : Debian -amd64 - noyau.4.6.0.1-
(G)UI : xfce4 - bépo_TypeMatrix
Inscription : 28-03-2012
Site Web

Re : [Résolu] convertir une vidéo

j'ai  les dépôts backports dans mon sources.list
je verrai ça smile

Celui qui ignore l’histoire se retrouvera sur une rive solitaire,d’où il épiera en vain les lumières d’un bateau.
Ce bateau ne viendra pas.
---------------------------
auto-hébergement chezlagrenouille.fr

En ligne

Pied de page des forums