Debian-facile

Bienvenue sur Debian-Facile, site d'aide pour les nouveaux utilisateurs de Debian.

Vous n'êtes pas identifié(e).

#1 03-10-2016 10:03:15

debian-alain
Membre
Distrib. : DEBIAN JESSIE 8.5.0
Noyau : Linux 4.6.0-0.bpo.1-amd64
(G)UI : GNOME
Inscription : 31-08-2016

[Résolu] rippage dvd

bonjour ,

j'ai essayé , tout à fait récemment , de ripper un dvd .

l'opération s'est bien déroulée jusqu'a 85 % d'encodage .

cause : manque de place .

curieux , car j'ai un peu plus de 800 Go de libre sur mon disque dur .

pour un dvd de 4.7 Go , y a  de la place quand meme !

je me suis apperçu que ogm rip ne tient pas compte des nouveaux paramètres que l'on lui donne .

et dvd 9 to 5 , cest pareil

tous semblent se baser sur tmp où la place semble comptée alors que dans video il y a plus de 800 Go de place de libre !

et ne parlons pas  de  HDD EXT 1/2/3 où il y a environ 2To de libre !

si qqun peut m'aider

merci

alain

Dernière modification par debian-alain (14-10-2016 15:37:15)

Hors ligne

#2 03-10-2016 10:09:47

mksmn
Membre
Lieu : Ile de France
Distrib. : Debian Gnu-Linux Jessie 8.x & Backports
Noyau : Noyau Linux 3.16.0-4-686-pae
(G)UI : Xfce 4.10 & Mate 1.8.1
Inscription : 30-06-2008

Re : [Résolu] rippage dvd

salut,

peut être en créant un nouveau dossier tmp et en indiqué le chemin pour le ripp, sans conviction, je ne rippe jamais de dvd.

Dernière modification par mksmn (03-10-2016 10:10:13)


Debian, c'est bien.
Adhérent APRIL 9141
Fan de Norah Jones, depuis toujours et pour toujours.

Hors ligne

#3 03-10-2016 11:21:33

golgot200
Membre
Lieu : AIN
Distrib. : Debian Jessie
Noyau : Linux debian 3.16.0-4-amd64
(G)UI : MATE
Inscription : 05-08-2007

Re : [Résolu] rippage dvd

bonjour,

essaies de ripper le dvd par la commande  :


mplayer -dumpstream dvd://1
 



pour voir ...

pour ma part, je bosse sur le rippage et l'encodage depuis 2 ou 3 jours  à la recherche de nouveaux programmes.

retenue pour l'instant

mplayer pour un simple rippage
ffqueue ou Curlew  0.2.1 ( pas la 0.2.2 )
et le preset  perso

wink

Dernière modification par golgot200 (03-10-2016 11:27:48)


L'ultime question ... l'intelligence a besoin de la bêtise pour s'affirmer, la beauté a besoin de la laideur pour resplendir, le courage nait dans la peur, les forts impressionnent au millieu des faibles, mais au final,... qui a donc besoin d'autant de connards ?

Hors ligne

#4 03-10-2016 11:23:43

Thuban
Modérateur
Distrib. : OpenBSD
Noyau : current
(G)UI : xfce ou dwm
Inscription : 09-01-2009
Site Web

Re : [Résolu] rippage dvd

À tout les coups il utilise /tmp comme dossier temporaire, et peut-être n'as-tu pas autant de place que tu le penses dessus.
À moins de pouvoir modifier les paramètres, tu peux te tourner  vers d'autres outils (comme la ligne de commande).

Sinon, vlc peut le faire aussi : http://www.instructables.com/id/How-to- … -with-VLC/

YA3HGA-H

Hors ligne

#5 03-10-2016 11:30:32

golgot200
Membre
Lieu : AIN
Distrib. : Debian Jessie
Noyau : Linux debian 3.16.0-4-amd64
(G)UI : MATE
Inscription : 05-08-2007

Re : [Résolu] rippage dvd

@debian-alain

tu utilises dv9 to 5, c'est pour regraver sur une galette ?

L'ultime question ... l'intelligence a besoin de la bêtise pour s'affirmer, la beauté a besoin de la laideur pour resplendir, le courage nait dans la peur, les forts impressionnent au millieu des faibles, mais au final,... qui a donc besoin d'autant de connards ?

Hors ligne

#6 03-10-2016 11:33:01

Sébastien
Membre
Lieu : Bayonnais exilé à Limoges
Distrib. : Debian Jessie saveur handylinux 2.5.1
Noyau : linux-image-686-pae 3.16
(G)UI : xfce
Inscription : 26-08-2016

Re : [Résolu] rippage dvd

Pour ripper les dvd j'utilise handbrake, ça fonctionne nickel!

Hors ligne

#7 03-10-2016 11:53:33

enicar
Membre
Lieu : Grenoble
Distrib. : debian/sid
Noyau : Linux 4.8.10
(G)UI : openbox
Inscription : 26-08-2010

Re : [Résolu] rippage dvd

Tu peux aussi essayer de changer la variable d'environnement TMP.
D'abord il faut créer un répertoire pour les données temporaires, HOME est tout indiqué pour cela :


mkdir ~/tmp
 


Ça va créer un le répertoire ~/tmp.
Ensuite il suffit quand tu lances ta commande de rippage de faire :


# PSEUDO CODE !
TMP=~/tmp   <commande_de_rippage>
 


Le « TMP=~/tmp » et la commande de rippage doivent être sur la même ligne.
« TMP=~tmp » devant la commande permet de définir la variable d'environnement
TMP pour la commande qui suit uniquement. Cette valeur est oubliée
à la fin de la commande.

Normalement, la commande devrait utilisé ~/tmp comme répertoire temporaire.
Si ce n'est pas le cas, c'est que cette commande a été mal codée wink

Dernière modification par enicar (03-10-2016 11:57:46)


La machine, c'est dépassé ! On va tout remplacer par des humains big_smile

Hors ligne

#8 03-10-2016 12:09:09

enicar
Membre
Lieu : Grenoble
Distrib. : debian/sid
Noyau : Linux 4.8.10
(G)UI : openbox
Inscription : 26-08-2010

Re : [Résolu] rippage dvd

Tu peux aussi relire la discussion autour d'un script de rippage de dvd :
https://debian-facile.org/viewtopic.php?id=12269

La machine, c'est dépassé ! On va tout remplacer par des humains big_smile

Hors ligne

#9 03-10-2016 12:24:43

golgot200
Membre
Lieu : AIN
Distrib. : Debian Jessie
Noyau : Linux debian 3.16.0-4-amd64
(G)UI : MATE
Inscription : 05-08-2007

Re : [Résolu] rippage dvd

Un peu de pub fait pas de mal big_smile

L'ultime question ... l'intelligence a besoin de la bêtise pour s'affirmer, la beauté a besoin de la laideur pour resplendir, le courage nait dans la peur, les forts impressionnent au millieu des faibles, mais au final,... qui a donc besoin d'autant de connards ?

Hors ligne

#10 03-10-2016 12:27:30

enicar
Membre
Lieu : Grenoble
Distrib. : debian/sid
Noyau : Linux 4.8.10
(G)UI : openbox
Inscription : 26-08-2010

Re : [Résolu] rippage dvd

golgot200 a écrit :

Un peu de pub fait pas de mal big_smile


Je t'en prie big_smile
Il faut dire j'avais bien aimé ce script, même si j'utilise une autre méthode wink


La machine, c'est dépassé ! On va tout remplacer par des humains big_smile

Hors ligne

#11 03-10-2016 12:31:28

golgot200
Membre
Lieu : AIN
Distrib. : Debian Jessie
Noyau : Linux debian 3.16.0-4-amd64
(G)UI : MATE
Inscription : 05-08-2007

Re : [Résolu] rippage dvd

Je viens de tester Curlew, je vais faire un petit post  avec un preset maison  et mettre le lien sur ce post pour essaie ....  tongue

L'ultime question ... l'intelligence a besoin de la bêtise pour s'affirmer, la beauté a besoin de la laideur pour resplendir, le courage nait dans la peur, les forts impressionnent au millieu des faibles, mais au final,... qui a donc besoin d'autant de connards ?

Hors ligne

#12 03-10-2016 12:36:11

debian-alain
Membre
Distrib. : DEBIAN JESSIE 8.5.0
Noyau : Linux 4.6.0-0.bpo.1-amd64
(G)UI : GNOME
Inscription : 31-08-2016

Re : [Résolu] rippage dvd

merci à tous .

voilà ce que j'ai retenu :

modifier le dossier tmp : très peu pour moi , je tiens pas à planter ma machine

handbrake : trop compliqué  , j'ai pas réussi à m'en servir

vlc : vieux défaut récurrent : pas d'image lors de l'enregistrement alors que je l'avais demandé (à vlc)

mplayer : très rapide , très  agréable  bien qu'il soit en ligne de commande ;
par contre y a t il moyen d'enregistrer en mp4 ou en avi et non en mp2 ?

Hors ligne

#13 03-10-2016 12:45:12

golgot200
Membre
Lieu : AIN
Distrib. : Debian Jessie
Noyau : Linux debian 3.16.0-4-amd64
(G)UI : MATE
Inscription : 05-08-2007

Re : [Résolu] rippage dvd

@debian-alain

ça arrive wink

L'ultime question ... l'intelligence a besoin de la bêtise pour s'affirmer, la beauté a besoin de la laideur pour resplendir, le courage nait dans la peur, les forts impressionnent au millieu des faibles, mais au final,... qui a donc besoin d'autant de connards ?

Hors ligne

#14 03-10-2016 12:52:46

debian-alain
Membre
Distrib. : DEBIAN JESSIE 8.5.0
Noyau : Linux 4.6.0-0.bpo.1-amd64
(G)UI : GNOME
Inscription : 31-08-2016

Re : [Résolu] rippage dvd

merci golgot200 pour ton premier lien (celui avec mplayer)

j'ai essayé de transformer ton fichier stream.dump  en fichier avi ou mp4 avec avidemux , j'y suis pas arrivé .

Hors ligne

#15 03-10-2016 13:03:37

golgot200
Membre
Lieu : AIN
Distrib. : Debian Jessie
Noyau : Linux debian 3.16.0-4-amd64
(G)UI : MATE
Inscription : 05-08-2007

Re : [Résolu] rippage dvd

Voilà debian -alain

Rippage et encodage (Mplayer, ffmpeg & Curlew)
ffmpeg (dépôt Backports)

https://debian-facile.org/doc:systeme:a … ces.list?s

PS: il n'est pas compilé avec aac


Sous Debian Jessie


apt-get install mplayer2
 




Récupérer le paquet curlew-0.2.1 :

https://sourceforge.net/projects/curlew/files/
https://sourceforge.net/projects/curlew … b/download


dpkg -i curlew_0.2.1-1_all.deb
 




Lancer une fois curlew pour qu'il crée un .curlew dans son home.
Refermer Curlew.
allez dans ce dossier cacher à la racine de home. Vous verrez un fichier formats.cfg
collez ces lignes en bas de celui-ci : ( si vous voulez ) tongue



[Matroska Video (MKV - H.264 Video 720p - Super High Quality)]
type = video
ab = 384k
afreq = 48000
ach = 6
acodec = ac3
def_ab = 384k
vb = 1000k
def_vb = 1000k
vfps = 25 30
vcodec = libx264
vsize = default
vratio = default 1:1 4:3 5:4 16:9
ff = matroska
ext = mkv
extra =  -map 0  -profile:v high -level 4.1 -crf 9 -vb 10M -minrate 10M -maxrate 10M -bufsize 16M -pix_fmt yuv420p -sws_flags lanczos -vf hqdn3d=1.5:1.5:6:6,unsharp=5:5:1.0:5:5:0.0,hue=b=0.1:s=0.7 -aspect 16:9 -s hd720 -trellis 2 -x264opts bframes=6:cabac=1 -movflags faststart
 



PS: j'ai mis -map 0  pour prendre toutes les bandes audio, car je n'ai pas voulu à chaque fois rechercher la bande Française.
Pour les sous-titres, je ne m'y  suis pas penché.
A vous de corriger, si il y a des choses horribles  dans extra, mais ce que je peux dire à mon goût, c'est que le résultat chez moi est plus jolie que le DVD original.

Ripper votre Dvd avec mplayer


mplayer -dumpstream dvd://1
 



Vous vous retrouvé avec un fichier stream.dump avec tout le film + all audio et all sous-titres.

Lancez Curlew
En bas de la fenêtre, vous avez une barre de presets. Cliquez, sur le boutons (3 petits points en vertical). Vous devriez voir le preset personnalisé :
Matroska Video (MKV - H264 Video 720p -Super High Quality) précedement édité dans le formats.cfg.
Le choisir. Il restera mémorisé par la suite pour les futurs travaux.
Charger le fichier stream.dump par le bouton + en haut à gaughe de la fenêtre de Curlew. Lancer l'encodage du MKV.
Dans les options boutons 3 points , Onglet Plus, vous pouvez encoder qu'un petit morceau. ( Pratique pour les tests)

Ici pour 20 Secondes

1475493054.png


Voilà.

1475492764.png

1475492800.png

EDIT:

Pour faire plus simple
Sans Curlew, directement par la commande terminal :


ffmpeg -i stream.dump  -map 0  -profile:v high -level 4.1 -crf 9 -vb 10M -minrate 10M -maxrate 10M -bufsize 16M -pix_fmt yuv420p -sws_flags lanczos -vf hqdn3d=1.5:1.5:6:6,unsharp=5:5:1.0:5:5:0.0,hue=b=0.1:s=0.7 -aspect 16:9 -s hd720 -trellis 2 -x264opts bframes=6:cabac=1 -movflags faststart -c:a ac3 -y FILM-HQ.mkv
 



Ici  je ne cherche pas à réduire la taille mais améliorer si je peux dire .


Résultat :


Output #0, matroska, to 'FILM-HQ.mkv':
  Metadata:
    encoder         : Lavf57.41.100
    Stream #0:0: Video: h264 (libx264) (H264 / 0x34363248), yuv420p, 1280x720 [SAR 1:1 DAR 16:9], q=-1--1, 10000 kb/s, 25 fps, 1k tbn, 25 tbc
    Metadata:
      encoder         : Lavc57.48.101 libx264
    Side data:
      cpb: bitrate max/min/avg: 10000000/0/10000000 buffer size: 16000000 vbv_delay: -1
    Stream #0:1: Audio: ac3 ([0] [0][0] / 0x2000), 48000 Hz, 5.1(side), fltp, 448 kb/s
    Metadata:
      encoder         : Lavc57.48.101 ac3
    Stream #0:2: Audio: ac3 ([0] [0][0] / 0x2000), 48000 Hz, 5.1(side), fltp, 448 kb/s
    Metadata:
      encoder         : Lavc57.48.101 ac3
    Stream #0:3: Audio: ac3 ([0] [0][0] / 0x2000), 48000 Hz, 5.1(side), fltp, 448 kb/s
    Metadata:
      encoder         : Lavc57.48.101 ac3
    Stream #0:4: Audio: ac3 ([0] [0][0] / 0x2000), 48000 Hz, stereo, fltp, 192 kb/s
    Metadata:
      encoder         : Lavc57.48.101 ac3
Stream mapping:
  Stream #0:0 -> #0:0 (mpeg2video (native) -> h264 (libx264))
  Stream #0:1 -> #0:1 (ac3 (native) -> ac3 (native))
  Stream #0:2 -> #0:2 (ac3 (native) -> ac3 (native))
  Stream #0:3 -> #0:3 (ac3 (native) -> ac3 (native))
  Stream #0:4 -> #0:4 (ac3 (native) -> ac3 (native))

 



stream.dump  & Sortie :

1475494851.png  1475494920.png

J'aurais bien aimer utiliser Handbrake,mais je n'ai pas réussi à rentrer les bonnes syntaxes pour les fitres. hmm

Dernière modification par golgot200 (03-10-2016 13:58:59)


L'ultime question ... l'intelligence a besoin de la bêtise pour s'affirmer, la beauté a besoin de la laideur pour resplendir, le courage nait dans la peur, les forts impressionnent au millieu des faibles, mais au final,... qui a donc besoin d'autant de connards ?

Hors ligne

#16 03-10-2016 13:57:27

debian-alain
Membre
Distrib. : DEBIAN JESSIE 8.5.0
Noyau : Linux 4.6.0-0.bpo.1-amd64
(G)UI : GNOME
Inscription : 31-08-2016

Re : [Résolu] rippage dvd

pour golgot200 :

je n'arrive pas à installer et à utiliser curlew correctement .

j'ai des messages d'erreur

pour ta commande ffmpeg , je n'arrive que à télécharger 1 seul chapitre du dvd  , pas le disque et pas le film .

je crains d'etre obligé de me rabattre sur vlc que je n'aime pas pour ça .

Hors ligne

#17 03-10-2016 13:59:14

Sébastien
Membre
Lieu : Bayonnais exilé à Limoges
Distrib. : Debian Jessie saveur handylinux 2.5.1
Noyau : linux-image-686-pae 3.16
(G)UI : xfce
Inscription : 26-08-2016

Re : [Résolu] rippage dvd

ben si après ça on me dit que handbrake est trop compliqué alors qu'il y a strictement rien à faire je comprends plus rien wink

Hors ligne

#18 03-10-2016 14:00:55

golgot200
Membre
Lieu : AIN
Distrib. : Debian Jessie
Noyau : Linux debian 3.16.0-4-amd64
(G)UI : MATE
Inscription : 05-08-2007

Re : [Résolu] rippage dvd

Pour l'installation de curlew, il te dit qu'il manque des paquets ?

Colle le texte du terminal ici pour voir.


EDIT:

Il faut ripper le DVD avec Mplayer puis utiliser ffmpeg pour encoder wink si c'est là ton problème bien sûr.


mplayer -dumpstream dvd://1
 



puis :


ffmpeg -i stream.dump  -map 0  -profile:v high -level 4.1 -crf 9 -vb 10M -minrate 10M -maxrate 10M -bufsize 16M -pix_fmt yuv420p -sws_flags lanczos -vf hqdn3d=1.5:1.5:6:6,unsharp=5:5:1.0:5:5:0.0,hue=b=0.1:s=0.7 -aspect 16:9 -s hd720 -trellis 2 -x264opts bframes=6:cabac=1 -movflags faststart -c:a ac3 -y FILM-HQ.mkv
 

Dernière modification par golgot200 (03-10-2016 14:11:48)


L'ultime question ... l'intelligence a besoin de la bêtise pour s'affirmer, la beauté a besoin de la laideur pour resplendir, le courage nait dans la peur, les forts impressionnent au millieu des faibles, mais au final,... qui a donc besoin d'autant de connards ?

Hors ligne

#19 03-10-2016 14:02:03

golgot200
Membre
Lieu : AIN
Distrib. : Debian Jessie
Noyau : Linux debian 3.16.0-4-amd64
(G)UI : MATE
Inscription : 05-08-2007

Re : [Résolu] rippage dvd

Sébastien a écrit :

ben si après ça on me dit que handbrake est trop compliqué alors qu'il y a strictement rien à faire je comprends plus rien wink



C'est bien le problême, il n'est pas assez compliqué smile

EDIT: si je pouvais ajouter  ça dans Handbrake, je l'utiliserais , mais je n'ai pas réussi :


-vf hqdn3d=1.5:1.5:6:6,unsharp=5:5:1.0:5:5:0.0,hue=b=0.1:s=0.7
 

Dernière modification par golgot200 (03-10-2016 14:07:17)


L'ultime question ... l'intelligence a besoin de la bêtise pour s'affirmer, la beauté a besoin de la laideur pour resplendir, le courage nait dans la peur, les forts impressionnent au millieu des faibles, mais au final,... qui a donc besoin d'autant de connards ?

Hors ligne

#20 03-10-2016 14:16:35

Sébastien
Membre
Lieu : Bayonnais exilé à Limoges
Distrib. : Debian Jessie saveur handylinux 2.5.1
Noyau : linux-image-686-pae 3.16
(G)UI : xfce
Inscription : 26-08-2016

Re : [Résolu] rippage dvd

debian-alain a écrit :


handbrake : trop compliqué  , j'ai pas réussi à m'en servir



C'était ma réflexion après ce poste en fait wink

Hors ligne

#21 03-10-2016 15:33:46

enicar
Membre
Lieu : Grenoble
Distrib. : debian/sid
Noyau : Linux 4.8.10
(G)UI : openbox
Inscription : 26-08-2010

Re : [Résolu] rippage dvd

debian-alain a écrit :

modifier le dossier tmp : très peu pour moi , je tiens pas à planter ma machine


Ça risque rien, c'est juste pour le processus de rippage justement !
Il faut comprendre que chaque processus à son propre environnement, dont fait
partie la variable TMP, si elle n'est pas définie, c'est /tmp qui est utilisé.

Dernière modification par enicar (03-10-2016 15:35:53)


La machine, c'est dépassé ! On va tout remplacer par des humains big_smile

Hors ligne

#22 03-10-2016 20:32:20

debian-alain
Membre
Distrib. : DEBIAN JESSIE 8.5.0
Noyau : Linux 4.6.0-0.bpo.1-amd64
(G)UI : GNOME
Inscription : 31-08-2016

Re : [Résolu] rippage dvd

tout compte fait , j'ai réussi à me servir de handbrake . pas plus simple en effet.

seul bémol : il crée des fichiers  m4v que je suis obligé de réencoder en mp4 avec winff

par contre , comment ripper un dvd protégé acheté en librairie ?

Dernière modification par debian-alain (03-10-2016 21:11:05)

Hors ligne

#23 04-10-2016 10:42:43

golgot200
Membre
Lieu : AIN
Distrib. : Debian Jessie
Noyau : Linux debian 3.16.0-4-amd64
(G)UI : MATE
Inscription : 05-08-2007

Re : [Résolu] rippage dvd

debian-alain a écrit :



par contre , comment ripper un dvd protégé acheté en librairie ?



Bonjour,


http://www.videolan.org/developers/libdvdcss.html


nano  /etc/apt/sources.list
 



Éditer


deb http://download.videolan.org/pub/debian/stable/ /
 



Enregistrer, fermer.


wget -O - http://download.videolan.org/pub/debian/videolan-apt.asc | sudo apt-key add -
apt-get update
apt-get install libdvdcss2
 




Pour en revenir  à ton encodage : ( je peux pas faire plus simple)
Un 720p SAR 1:1 , une bidouille de filtres pour enlever, remettre améliorer etc ...
Grosseur quasi identique à la source.
Si tu veux réduire, passe -crf 9 en -crf 21


mplayer -dumpstream dvd://1 &&  ffmpeg -i stream.dump -map 0:0  -map 0:1 -map 0:2 -c:v libx264 -profile:v high -level 3.2 -crf 9  -maxrate 10M -bufsize 16M -pix_fmt yuv420p -sws_flags lanczos -vf "hqdn3d=1.5:1.5:6:6,unsharp=5:5:1.0:5:5:0.0,hue=b=0.1:s=0.7,noise=c0s=10:c1s=0:c2s=0:c0f=a+t" -r 25 -aspect "16:9" -s hd720 -trellis 2 -x264opts bframes=6:cabac=1 -movflags faststart -c:a ac3 -y FILM-HQ.mp4
 

Dernière modification par golgot200 (04-10-2016 11:19:09)


L'ultime question ... l'intelligence a besoin de la bêtise pour s'affirmer, la beauté a besoin de la laideur pour resplendir, le courage nait dans la peur, les forts impressionnent au millieu des faibles, mais au final,... qui a donc besoin d'autant de connards ?

Hors ligne

#24 04-10-2016 11:22:28

debian-alain
Membre
Distrib. : DEBIAN JESSIE 8.5.0
Noyau : Linux 4.6.0-0.bpo.1-amd64
(G)UI : GNOME
Inscription : 31-08-2016

Re : [Résolu] rippage dvd

enicar a écrit :

Tu peux aussi essayer de changer la variable d'environnement TMP.
D'abord il faut créer un répertoire pour les données temporaires, HOME est tout indiqué pour cela :


mkdir ~/tmp
 


Ça va créer un le répertoire ~/tmp.
Ensuite il suffit quand tu lances ta commande de rippage de faire :


# PSEUDO CODE !
TMP=~/tmp   <commande_de_rippage>
 


Le « TMP=~/tmp » et la commande de rippage doivent être sur la même ligne.
« TMP=~tmp » devant la commande permet de définir la variable d'environnement
TMP pour la commande qui suit uniquement. Cette valeur est oubliée
à la fin de la commande.

Normalement, la commande devrait utilisé ~/tmp comme répertoire temporaire.
Si ce n'est pas le cas, c'est que cette commande a été mal codée wink




d'accord enicar mais

TMP=~/tmp ogmrip



lance ogmrip avec le temp par défaut ....

Hors ligne

#25 04-10-2016 11:32:31

debian-alain
Membre
Distrib. : DEBIAN JESSIE 8.5.0
Noyau : Linux 4.6.0-0.bpo.1-amd64
(G)UI : GNOME
Inscription : 31-08-2016

Re : [Résolu] rippage dvd

golgot200 a écrit :

debian-alain a écrit :



par contre , comment ripper un dvd protégé acheté en librairie ?



Bonjour,


http://www.videolan.org/developers/libdvdcss.html


nano  /etc/apt/sources.list
 



Éditer


deb http://download.videolan.org/pub/debian/stable/ /
 



Enregistrer, fermer.


wget -O - http://download.videolan.org/pub/debian/videolan-apt.asc | sudo apt-key add -
apt-get update
apt-get install libdvdcss2
 




Pour en revenir  à ton encodage : ( je peux pas faire plus simple)
Un 720p SAR 1:1 , une bidouille de filtres pour enlever, remettre améliorer etc ...
Grosseur quasi identique à la source.
Si tu veux réduire, passe -crf 9 en -crf 21


mplayer -dumpstream dvd://1 &&  ffmpeg -i stream.dump -map 0:0  -map 0:1 -map 0:2 -c:v libx264 -profile:v high -level 3.2 -crf 9  -maxrate 10M -bufsize 16M -pix_fmt yuv420p -sws_flags lanczos -vf "hqdn3d=1.5:1.5:6:6,unsharp=5:5:1.0:5:5:0.0,hue=b=0.1:s=0.7,noise=c0s=10:c1s=0:c2s=0:c0f=a+t" -r 25 -aspect "16:9" -s hd720 -trellis 2 -x264opts bframes=6:cabac=1 -movflags faststart -c:a ac3 -y FILM-HQ.mp4
 





alain@debian:~$ mplayer -dumpstream dvd://1 &&  ffmpeg -i stream.dump -map 0:0  -map 0:1 -map 0:2 -c:v libx264 -profile:v high -level 3.2 -crf 9  -maxrate 10M -bufsize 16M -pix_fmt yuv420p -sws_flags lanczos -vf "hqdn3d=1.5:1.5:6:6,unsharp=5:5:1.0:5:5:0.0,hue=b=0.1:s=0.7,noise=c0s=10:c1s=0:c2s=0:c0f=a+t" -r 25 -aspect "16:9" -s hd720 -trellis 2 -x264opts bframes=6:cabac=1 -movflags faststart -c:a ac3 -y FILM-HQ.mp4



MPlayer SVN-r37375 (C) 2000-2013 MPlayer Team
Can't open joystick device /dev/input/js0: No such file or directory
Can't init input joystick
mplayer: could not connect to socket
mplayer: No such file or directory
Failed to open LIRC support. You will not be able to use your remote control.

Playing dvd://1.
There are 4 titles on this DVD.
There are 1 angles in this DVD title.

libdvdread: Attempting to retrieve all CSS keys
libdvdread: This can take a _long_ time, please be patient

libdvdread: Get key for /VIDEO_TS/VIDEO_TS.VOB at 0x0000012f
libdvdread: Elapsed time 0
libdvdread: Get key for /VIDEO_TS/VTS_01_0.VOB at 0x0000018e
libdvdread: Elapsed time 0
libdvdread: Get key for /VIDEO_TS/VTS_01_1.VOB at 0x00000195
libdvdread: Elapsed time 0
libdvdread: Get key for /VIDEO_TS/VTS_02_0.VOB at 0x00006036
libdvdread: Elapsed time 0
libdvdread: Get key for /VIDEO_TS/VTS_02_1.VOB at 0x00006083
libdvdread: Elapsed time 0
libdvdread: Get key for /VIDEO_TS/VTS_03_0.VOB at 0x000060b9
libdvdread: Elapsed time 0
libdvdread: Get key for /VIDEO_TS/VTS_03_1.VOB at 0x00006106
libdvdread: Elapsed time 0
libdvdread: Get key for /VIDEO_TS/VTS_04_0.VOB at 0x00085492
libdvdread: Elapsed time 0
libdvdread: Get key for /VIDEO_TS/VTS_04_1.VOB at 0x0009d54f
libdvdread: Elapsed time 0
libdvdread: Found 4 VTS's
libdvdread: Elapsed time 0
audio stream: 0 format: ac3 (stereo) language: unknown aid: 128.
number of audio channels on disk: 1.
number of subtitles on disk: 0
dump: 45117440 bytes written (~91.4%)
dump: 49364992 bytes written to 'stream.dump'.
Core dumped ;)

Exiting... (End of file)
ffmpeg version 2.6.9 Copyright (c) 2000-2016 the FFmpeg developers
  built with gcc 4.9.2 (Debian 4.9.2-10)
  configuration: --prefix=/usr --extra-cflags='-g -O2 -fstack-protector-strong -Wformat -Werror=format-security ' --extra-ldflags='-Wl,-z,relro' --cc='ccache cc' --enable-shared --enable-libmp3lame --enable-gpl --enable-nonfree --enable-libvorbis --enable-pthreads --enable-libfaac --enable-libxvid --enable-postproc --enable-x11grab --enable-libgsm --enable-libtheora --enable-libopencore-amrnb --enable-libopencore-amrwb --enable-libx264 --enable-libspeex --enable-nonfree --disable-stripping --enable-libvpx --enable-libschroedinger --disable-encoder=libschroedinger --enable-version3 --enable-libopenjpeg --enable-librtmp --enable-avfilter --enable-libfreetype --enable-libvo-aacenc --disable-decoder=amrnb --enable-libvo-amrwbenc --enable-libaacplus --libdir=/usr/lib/x86_64-linux-gnu --disable-vda --enable-libbluray --enable-libcdio --enable-gnutls --enable-frei0r --enable-openssl --enable-libass --enable-libopus --enable-fontconfig --enable-libpulse --disable-mips32r2 --disable-mipsdspr1 --disable-mipsdspr2 --enable-libvidstab --enable-libzvbi --enable-avresample --disable-htmlpages --disable-podpages --enable-libutvideo --enable-libfdk-aac --enable-libx265 --enable-libiec61883 --enable-vaapi --enable-libdc1394 --disable-altivec --shlibdir=/usr/lib/x86_64-linux-gnu
  libavutil      54. 20.100 / 54. 20.100
  libavcodec     56. 26.100 / 56. 26.100
  libavformat    56. 25.101 / 56. 25.101
  libavdevice    56.  4.100 / 56.  4.100
  libavfilter     5. 11.102 /  5. 11.102
  libavresample   2.  1.  0 /  2.  1.  0
  libswscale      3.  1.101 /  3.  1.101
  libswresample   1.  1.100 /  1.  1.100
  libpostproc    53.  3.100 / 53.  3.100
Input #0, mpeg, from 'stream.dump':
  Duration: 00:00:49.20, start: 0.280000, bitrate: 8026 kb/s
    Stream #0:0[0x1e0]: Video: mpeg2video (Main), yuv420p(tv), 720x576 [SAR 64:45 DAR 16:9], 8000 kb/s, 25 fps, 25 tbr, 90k tbn, 50 tbc
    Stream #0:1[0x80]: Audio: ac3, 48000 Hz, stereo, fltp, 224 kb/s
Stream map '0:2' matches no streams.
alain@debian:~$  

Hors ligne

Pied de page des forums