Debian Debian-France Debian-Facile Debian-fr.org Debian-fr.xyz Debian ? Communautés

Debian-facile

Bienvenue sur Debian-Facile, site d'aide pour les nouveaux utilisateurs de Debian.

Vous n'êtes pas identifié(e).

#76 26-05-2022 11:41:23

golgot200
Membre
Distrib. : Archlinux 2018-02-03
Noyau : 5.17.4-arch1-1
(G)UI : Mate (Strict Minimum)
Inscription : 05-08-2007

Re : wiki - ffmpeg - La video... facile !

smolski a écrit :

Ajout d'une méthode2 pour extraire le son d'une vidéo avec ffmpeg :
https://debian-facile.org/doc:media:ffm … dio-en-mp3 roll

Plus facile que la première... big_smile



Oui, en admettant qu'il n'y ait qu'un stream audio sur la vidéo.  smile

EDIT: sur un mkv, seul le premier stream audio sera extrait. Sur un avi, le problème ne se pause pas ... je pense.

Dernière modification par golgot200 (26-05-2022 12:02:27)

Hors ligne

#77 27-05-2022 08:40:15

golgot200
Membre
Distrib. : Archlinux 2018-02-03
Noyau : 5.17.4-arch1-1
(G)UI : Mate (Strict Minimum)
Inscription : 05-08-2007

Re : wiki - ffmpeg - La video... facile !

Une idée :

choisir le stream ou les streams à extraire avec un visuel sur les stream audio présent dans le fichier :

pour un mkv nommé input.mkv ( à améliorer plus tard par une sélection )

Script à problème, je supprime le temps de voir ce qui cloche




  Stream #0:1(fre): Audio: dts (DTS), 48000 Hz, 5.1(side), fltp, 768 kb/s (default)
  Stream #0:2(eng): Audio: dts (DTS), 48000 Hz, 5.1(side), fltp, 1536 kb/s

Entrer un choix, enter pour quitter:
Exemple 1 2 ou 2 (mettre des espaces pour extraire plusieurs streams)


 



voilà

Dernière modification par golgot200 (28-05-2022 14:04:22)

Hors ligne

Pied de page des forums