Debian-facile

Bienvenue sur Debian-Facile, site d'aide pour les nouveaux utilisateurs de Debian.

Vous n'êtes pas identifié(e).

#2 Re : Matériel » HP Probook 450 ne s'éteint pas » Hier 11:49:07

Bonjour smile

J'ai testé avec le kernel backports ainsi que depuis la console tty : pas de changement sos.gif

#3 Re : Matériel » HP Probook 450 ne s'éteint pas » 20-10-2020 19:45:57

@jpt : J'ai fouillé dans le BIOS et rien hmm J'ai désactivé les options comme "wake on LAN". Sous une installation Stretch en UEFI, je n'avait pas le problème. C'est en passant à une Buster en Legacy que ça s'est déclaré.

@alboka : Ok, je pourrais tenter une installation de kernel backports, mais est-ce qu'un retour en arrière serait possible en cas de besoin ? (si ça ne change rien par exemple)

#4 Matériel » Clé USB en lecture seule (inutilisable) » 20-10-2020 10:40:06

Caribou22
Réponses : 5
Bonjour DF ! smile

J'ai un soucis avec une clé USB? Il m'est impossible d'y ajouter/supprimer des fichiers, ni de la formater; car elle est indiquée en lecture seule. Exemple :

dd if=/dev/zero of=/dev/sdb bs=512 count=4096


dd: impossible d'ouvrir '/dev/sdb': Système de fichiers accessible en lecture seulement



J'ai essayé pas mal de choses : formatage sous Debian avec gnome-disk-utility, gparted, le terminal... formatage sous Windows, formatage avec mon smartphone sous Android. Et j'ai à chaque fois ce type d'indication hmm

Ma clé USB est-elle HS ? ^^ Merci d'avance ! smile

#5 Re : Suivi du Wiki et des Projets Git » [DFiso - aide aux débutants] mini tutos vidéo Debian-Facile » 20-10-2020 10:31:01

Merci pour ce tuto ! smile
Il sera bien utile aux débutants en galère de mise à jour je l'espère wink

#6 Re : Projet Reconditionnement » Reconditionnement d'ordinateurs à destination des plus démunis » 18-10-2020 21:37:18

Plop smile

Un lien qui pourrait être intéressant, car ça coïncide plutôt avec notre projet smile : https://accueil-integration-refugies.fr … refugiees/

Appel à projets national – Lutte contre la fracture numérique touchant les personnes réfugiées

La Délégation interministérielle à l’accueil et l’intégration des réfugiés (Diair) publie un appel à projet ayant pour but l’inclusion numérique des personnes réfugiées et de leurs accompagnants. Cet appel à projet vise ainsi à lutter contre la fracture numérique qui touche aujourd’hui près de 13 millions de personnes en France et dont les personnes réfugiées sont très souvent victimes.
Date limite de dépôt des candidatures : 28 octobre 2020.

Les priorités de l’appel à projets ont été définies en cohérence avec les objectifs de la stratégie de lutte contre la fracture numérique qui vise à promouvoir :
• L’amélioration de l’accès à du matériel informatique à prix solidaire
• L’amélioration de la connectivité des personnes réfugiées
• La mise en place de formations sur les outils numériques destinées aux personnes réfugiées et à leurs accompagnants
Pour quel public ?

Les dispositifs mis en place dans le cadre de cet appel à projet seront destinés à des personnes réfugiées statutaires, des bénéficiaires de la protection subsidiaire et des aidants de personnes réfugiées (travailleurs sociaux, médiateurs, bénévoles, etc.).
Cet appel à projets vise à équiper, connecter et/ou former environ 1000 personnes.
Qui peut candidater ?

Les associations régies par la loi de 1901 peuvent candidater. Plusieurs associations peuvent se regrouper pour proposer un projet.
Quelle portée géographique ?

Les projets proposés devront avoir une dimension nationale ou interrégionale. Pour des projets régionaux, départementaux ou locaux, ceux-ci devront obligatoirement revêtir un caractère expérimental en vue d’essaimage.
Montant des subventions ?

Dans le cadre du lancement de la démarche de lutte contre la fracture numérique, le montant de la subvention octroyée par la Diair sera compris dans une fourchette budgétaire entre 10 000 et 50 000 euros.


Dépôt des candidatures

    Par voie électronique: les dossiers devront être envoyés aux adresses suivantes :

chloe.vermeulin@interieur.gouv.fr
copie à simon.karleskind@interieur.gouv.fr

    Par voie postale: les dossiers devront être envoyés à l’adresse suivante :

Ministère de l’Intérieur
Délégation Interministérielle à l’Accueil et à l’Intégration des Réfugiés
(site Garance)
À l’attention de Simon Karleskind et Chloé Vermeulin
Place Beauvau
75800 Paris Cedex 08
Date limite de dépôt des candidatures

Les dossiers doivent être impérativement envoyés avant le 28 octobre 2020 (23h59 heure de Paris).

#7 Re : Vie de l'association » Mise à jour des ISOs Debian-Facile en version 10.5-1 » 14-10-2020 16:21:08

capdefradeb a écrit :

La comparaison de l'utilisation mémoire entre XFCE et LXQT donne environ 100 Ko de différence seulement entre les deux environnements sur la Debian-Facile  ( un peu plus de 300 avec LXQT et plus de 400 avec  XFCE). Avec 1Go de Ram seulement, ça peut présenter un intérêt mais, à partir de 2Go, autant s'en tenir à  XFCE, nettement  plus ergonomique, sauf s'il y a aussi une différence de rapidité conséquente mais je ne l'ai pas constaté.



100 ko ? Dans ce cas même avec 1 Go de RAM, je pense que la différence est quasi-imperceptible smile
Debian 10 avec Xfce ou LXQT est donc hélas un peu trop lourde pour "seulement" 1 Go de RAM. (surtout si on surf)

Sinon, pour les configs avec peu de RAM (1 Go et moins), je conseillerais antiX : https://antixlinux.com/ (Basé sur Debian Stable)
Je ne sais plus trop quel environnement (ou gestionnaire de fenêtres seul) ça utilise, mais c'est incroyablement léger, tout en ayant une ergonomie et une esthétique qui m'ont agréablement surpris smile

#8 Re : Matériel » HP Probook 450 ne s'éteint pas » 13-10-2020 22:59:57

Bonsoir smile
@jpt : la commande poweroff fait le même effet qu'une extinction normale : extinction, puis redémarrage après les quelques secondes d'arrêt.

#9 Re : Multimédia » Gravure de DVD lisible par lecteur DVD » 13-10-2020 14:28:47

Bonjour smile

Tentative en ligne de commande suivant golgot200 :

ffmpeg -i Video1.mp4 -target pal-dvd video1_NORMALISE.mpg


ffmpeg version 4.1.6-1~deb10u1 Copyright (c) 2000-2020 the FFmpeg developers
  built with gcc 8 (Debian 8.3.0-6)
  configuration: --prefix=/usr --extra-version='1~deb10u1' --toolchain=hardened --libdir=/usr/lib/x86_64-linux-gnu --incdir=/usr/include/x86_64-linux-gnu --arch=amd64 --enable-gpl --disable-stripping --enable-avresample --disable-filter=resample --enable-avisynth --enable-gnutls --enable-ladspa --enable-libaom --enable-libass --enable-libbluray --enable-libbs2b --enable-libcaca --enable-libcdio --enable-libcodec2 --enable-libflite --enable-libfontconfig --enable-libfreetype --enable-libfribidi --enable-libgme --enable-libgsm --enable-libjack --enable-libmp3lame --enable-libmysofa --enable-libopenjpeg --enable-libopenmpt --enable-libopus --enable-libpulse --enable-librsvg --enable-librubberband --enable-libshine --enable-libsnappy --enable-libsoxr --enable-libspeex --enable-libssh --enable-libtheora --enable-libtwolame --enable-libvidstab --enable-libvorbis --enable-libvpx --enable-libwavpack --enable-libwebp --enable-libx265 --enable-libxml2 --enable-libxvid --enable-libzmq --enable-libzvbi --enable-lv2 --enable-omx --enable-openal --enable-opengl --enable-sdl2 --enable-libdc1394 --enable-libdrm --enable-libiec61883 --enable-chromaprint --enable-frei0r --enable-libx264 --enable-shared
  libavutil      56. 22.100 / 56. 22.100
  libavcodec     58. 35.100 / 58. 35.100
  libavformat    58. 20.100 / 58. 20.100
  libavdevice    58.  5.100 / 58.  5.100
  libavfilter     7. 40.101 /  7. 40.101
  libavresample   4.  0.  0 /  4.  0.  0
  libswscale      5.  3.100 /  5.  3.100
  libswresample   3.  3.100 /  3.  3.100
  libpostproc    55.  3.100 / 55.  3.100
[mov,mp4,m4a,3gp,3g2,mj2 @ 0x55b26ce36740] Could not find codec parameters for stream 0 (Video: h264 (avc1 / 0x31637661), none, 640x480, 1243 kb/s): unspecified pixel format
Consider increasing the value for the 'analyzeduration' and 'probesize' options
Input #0, mov,mp4,m4a,3gp,3g2,mj2, from 'Video1.mp4':
  Metadata:
    major_brand     : isom
    minor_version   : 512
    compatible_brands: isomiso2avc1mp41
    encoder         : Lavf58.20.100
  Duration: 01:02:29.00, start: 0.020000, bitrate: 1378 kb/s
    Stream #0:0(eng): Video: h264 (avc1 / 0x31637661), none, 640x480, 1243 kb/s, SAR 1:1 DAR 4:3, 24.96 fps, 25 tbr, 90k tbn, 180k tbc (default)
    Metadata:
      handler_name    : VideoHandler
    Stream #0:1(eng): Audio: mp2 (mp4a / 0x6134706D), 44100 Hz, stereo, fltp, 127 kb/s (default)
    Metadata:
      handler_name    : SoundHandler
Stream mapping:
  Stream #0:0 -> #0:0 (h264 (native) -> mpeg2video (native))
  Stream #0:1 -> #0:1 (mp2 (native) -> ac3 (native))
Press [q] to stop, [?] for help
Too many packets buffered for output stream 0:1.
Conversion failed!



hmm

Edit :
Solution : https://stackoverflow.com/a/50262835
Donc la commande devient :
ffmpeg -i Video1.mp4 -target pal-dvd -max_muxing_queue_size 1024 video1_NORMALISE.mpg
Je poursuis les tests smile

Edit 2 : Ça marche !!! big_smile
Je peux donc mettre résolu donc wink

Edit 3: mkisofs semble ne plus exister ? J'ai utilisé genisoimage à la place

Par contre il n'y a pas de solution 100% graphique du coup ?

#10 Re : Projet Reconditionnement » Carte des reconditionneurs » 05-10-2020 21:19:25

fiche a écrit :

Bonsoir,

A ma connaissance, Anydesk n'est pas disponible dans les dépôts Debian.
Il faut l'installer à partir du .deb sur le site de l'éditeur : https://anydesk.com/fr/downloads/linux



Il est dispo via flatpak oui smile (C'est pour ça que je disais qu'il s'installait en un clic dans l'ISO DF, car flatpak y est pré-installé)

#11 Re : Installation de Debian » Je ne trouve pas de manuel d'installation de debian live » 05-10-2020 14:35:39

Bonjour et bienvenue ! smile

Je ne sais pas s'il y a plus d'infos sur e site officiel.
En revanche, tu trouveras ici par exemple :
- Le wiki Debian-Facile, comment créer une clé USB Debian bootable : https://debian-facile.org/doc:install:usb-boot
- Les cahiers du débutant, chapitre pour créer une clé USB live Debian Bootable : https://debian-facile.org/projets/lesca … ur-cle-usb

Et si tu es grand débutant, peut-être que l'ISO Debian-Facile t'intéressera aussi wink https://debian-facile.org/projets:iso-debian-facile

#13 Re : Installation de Debian » Packard bell P5WS0 laptop : environement graphique problèmes » 05-10-2020 11:48:27

Bonjour smile

Vu la matériel et ta description du problème (bureau presque vide), on dirait que ton écran HS est utilisé comme principal et ton écran externe comme écran secondaire pour faire un bureau étendu.

Je te suggère de jeter un oeil aux paramètres d'affichage et vérifier que ton écran externe es bien défini comme principal. (Tu peux aussi désactiver l'écran interne)

#14 Re : Présentations » Bonjour de Haute-Savoie et déjà des questions!! » 05-10-2020 11:44:57

Bonjour et bienvenue à toi ! smile
Bonne découverte de DFiso et des joies du reconditionnement avec ! big_smile

#15 Re : Projet Reconditionnement » Carte des reconditionneurs » 05-10-2020 11:41:38

Bonjour merciers smile
L'ISO DF devrait vous convenir oui.
- Pour l'assistance à distance, on peut télécharger Teamviewer sur leur site en .deb. Ou sinon, il y a Anydesk qui fonctionne de la même manière et s'installe en un clic depuis la logithèque wink (Via Flatpak, qui est inclus dans l'ISO)
- PXE et Samba, je ne connais pas trop par contre...

#16 Multimédia » Gravure de DVD lisible par lecteur DVD » 02-10-2020 18:19:49

Caribou22
Réponses : 4
Bonsoir smile
J'ai numérisé des VHS sous forme de fichiers MP4 et j'aimerais graver ces films sur des DVD, afin que l'on puisse les lire dans n'importe quel lecteur DVD.

J'aurais aimé savoir si certains d'entre vous ont déjà fait ça, et avec quels logiciels ?

Car j'ai tenté avec deux logiciels libres : Devede (sous Debian) et DVDstyler (sous Windows 10...), et aucun des deux n'a pour le moment fonctionné.
-Devede génère d'abord une ISO, et j'ai un échec pendant la création de l'ISO à chaque fois. (Et l'emplacement où est crée l'ISO ne manque pas de place.)
Un exemple de log :

Static data:

FFProbe JSON data: {
    "streams": [
        {
            "index": 0,
            "codec_name": "h264",
            "codec_long_name": "H.264 / AVC / MPEG-4 AVC / MPEG-4 part 10",
            "profile": "High",
            "codec_type": "video",
            "codec_time_base": "1/50",
            "codec_tag_string": "avc1",
            "codec_tag": "0x31637661",
            "width": 768,
            "height": 576,
            "coded_width": 768,
            "coded_height": 576,
            "has_b_frames": 2,
            "sample_aspect_ratio": "1:1",
            "display_aspect_ratio": "4:3",
            "pix_fmt": "yuv420p",
            "level": 31,
            "color_range": "tv",
            "color_space": "bt470bg",
            "color_transfer": "smpte170m",
            "chroma_location": "left",
            "refs": 1,
            "is_avc": "true",
            "nal_length_size": "4",
            "r_frame_rate": "25/1",
            "avg_frame_rate": "25/1",
            "time_base": "1/12800",
            "start_pts": 0,
            "start_time": "0.000000",
            "duration_ts": 61491712,
            "duration": "4804.040000",
            "bit_rate": "3046078",
            "bits_per_raw_sample": "8",
            "nb_frames": "120101",
            "disposition": {
                "default": 1,
                "dub": 0,
                "original": 0,
                "comment": 0,
                "lyrics": 0,
                "karaoke": 0,
                "forced": 0,
                "hearing_impaired": 0,
                "visual_impaired": 0,
                "clean_effects": 0,
                "attached_pic": 0,
                "timed_thumbnails": 0
            },
            "tags": {
                "language": "und",
                "handler_name": "VideoHandler"
            }
        },
        {
            "index": 1,
            "codec_name": "aac",
            "codec_long_name": "AAC (Advanced Audio Coding)",
            "profile": "LC",
            "codec_type": "audio",
            "codec_time_base": "1/48000",
            "codec_tag_string": "mp4a",
            "codec_tag": "0x6134706d",
            "sample_fmt": "fltp",
            "sample_rate": "48000",
            "channels": 2,
            "channel_layout": "stereo",
            "bits_per_sample": 0,
            "r_frame_rate": "0/0",
            "avg_frame_rate": "0/0",
            "time_base": "1/48000",
            "start_pts": 0,
            "start_time": "0.000000",
            "duration_ts": 230594544,
            "duration": "4804.053000",
            "bit_rate": "160058",
            "max_bit_rate": "160058",
            "nb_frames": "225191",
            "disposition": {
                "default": 1,
                "dub": 0,
                "original": 0,
                "comment": 0,
                "lyrics": 0,
                "karaoke": 0,
                "forced": 0,
                "hearing_impaired": 0,
                "visual_impaired": 0,
                "clean_effects": 0,
                "attached_pic": 0,
                "timed_thumbnails": 0
            },
            "tags": {
                "language": "und",
                "handler_name": "SoundHandler"
            }
        }
    ]
}

Getting data for /media/quentin/2A58AE9F16A70B2F/Cassettes/Mariage 1993.mp4 with ffprobe
Estimated length: 4804; Resolution: 768x576
FFProbe JSON data: {
    "streams": [
        {
            "index": 0,
            "codec_name": "h264",
            "codec_long_name": "H.264 / AVC / MPEG-4 AVC / MPEG-4 part 10",
            "codec_type": "video",
            "codec_time_base": "39986029/1996432426",
            "codec_tag_string": "avc1",
            "codec_tag": "0x31637661",
            "width": 640,
            "height": 480,
            "coded_width": 640,
            "coded_height": 480,
            "has_b_frames": 4,
            "sample_aspect_ratio": "1:1",
            "display_aspect_ratio": "4:3",
            "level": -99,
            "chroma_location": "left",
            "refs": 1,
            "is_avc": "true",
            "nal_length_size": "4",
            "r_frame_rate": "25/1",
            "avg_frame_rate": "998216213/39986029",
            "time_base": "1/90000",
            "start_pts": 481140,
            "start_time": "5.346000",
            "duration_ts": 336946723,
            "duration": "3743.852478",
            "bit_rate": "1243941",
            "nb_frames": "93462",
            "disposition": {
                "default": 1,
                "dub": 0,
                "original": 0,
                "comment": 0,
                "lyrics": 0,
                "karaoke": 0,
                "forced": 0,
                "hearing_impaired": 0,
                "visual_impaired": 0,
                "clean_effects": 0,
                "attached_pic": 0,
                "timed_thumbnails": 0
            },
            "tags": {
                "language": "eng",
                "handler_name": "VideoHandler"
            }
        },
        {
            "index": 1,
            "codec_name": "mp2",
            "codec_long_name": "MP2 (MPEG audio layer 2)",
            "codec_type": "audio",
            "codec_time_base": "1/44100",
            "codec_tag_string": "mp4a",
            "codec_tag": "0x6134706d",
            "sample_fmt": "fltp",
            "sample_rate": "44100",
            "channels": 2,
            "channel_layout": "stereo",
            "bits_per_sample": 0,
            "r_frame_rate": "0/0",
            "avg_frame_rate": "0/0",
            "time_base": "1/44100",
            "start_pts": 882,
            "start_time": "0.020000",
            "duration_ts": 165330983,
            "duration": "3749.001882",
            "bit_rate": "127693",
            "max_bit_rate": "127700",
            "nb_frames": "143502",
            "disposition": {
                "default": 1,
                "dub": 0,
                "original": 0,
                "comment": 0,
                "lyrics": 0,
                "karaoke": 0,
                "forced": 0,
                "hearing_impaired": 0,
                "visual_impaired": 0,
                "clean_effects": 0,
                "attached_pic": 0,
                "timed_thumbnails": 0
            },
            "tags": {
                "language": "eng",
                "handler_name": "SoundHandler"
            }
        }
    ]
}

Getting data for /media/quentin/2A58AE9F16A70B2F/Cassettes/Année 1999 - Johan Solène Emeline - Baptême Johan (21-11-1999) - Noël Spectacle école (19-12-1999).mp4 with ffprobe
Estimated length: 3743; Resolution: 640x480


Dynamic data:

Converting Année 1999 - Johan Solène Emeline - Baptême Johan (21-11-1999) - Noël Spectacle école (19-12-1999)


Launching: ffmpeg -i /media/quentin/2A58AE9F16A70B2F/Cassettes/Année 1999 - Johan Solène Emeline - Baptême Johan (21-11-1999) - Noël Spectacle école (19-12-1999).mp4 -i /media/quentin/2A58AE9F16A70B2F/Cassettes/Année 1999 - Johan Solène Emeline - Baptême Johan (21-11-1999) - Noël Spectacle école (19-12-1999).mp4 -map 1:0 -map 0:1 -vf scale=704:576 -y -target pal-dvd -sn -g 12 -bf 2 -strict 1 -ac 2 -aspect 1.3333333333333333 -s 704x576 -trellis 1 -mbd 2 -b:a 224k -b:v 5000k /media/quentin/2A58AE9F16A70B2F/Cassettes/DVD/1999/movies/movie_0.mpg


ffmpeg version 4.1.6-1~deb10u1 Copyright (c) 2000-2020 the FFmpeg developers
  built with gcc 8 (Debian 8.3.0-6)
  configuration: --prefix=/usr --extra-version='1~deb10u1' --toolchain=hardened --libdir=/usr/lib/x86_64-linux-gnu --incdir=/usr/include/x86_64-linux-gnu --arch=amd64 --enable-gpl --disable-stripping --enable-avresample --disable-filter=resample --enable-avisynth --enable-gnutls --enable-ladspa --enable-libaom --enable-libass --enable-libbluray --enable-libbs2b --enable-libcaca --enable-libcdio --enable-libcodec2 --enable-libflite --enable-libfontconfig --enable-libfreetype --enable-libfribidi --enable-libgme --enable-libgsm --enable-libjack --enable-libmp3lame --enable-libmysofa --enable-libopenjpeg --enable-libopenmpt --enable-libopus --enable-libpulse --enable-librsvg --enable-librubberband --enable-libshine --enable-libsnappy --enable-libsoxr --enable-libspeex --enable-libssh --enable-libtheora --enable-libtwolame --enable-libvidstab --enable-libvorbis --enable-libvpx --enable-libwavpack --enable-libwebp --enable-libx265 --enable-libxml2 --enable-libxvid --enable-libzmq --enable-libzvbi --enable-lv2 --enable-omx --enable-openal --enable-opengl --enable-sdl2 --enable-libdc1394 --enable-libdrm --enable-libiec61883 --enable-chromaprint --enable-frei0r --enable-libx264 --enable-shared
  libavutil      56. 22.100 / 56. 22.100
  libavcodec     58. 35.100 / 58. 35.100
  libavformat    58. 20.100 / 58. 20.100
  libavdevice    58.  5.100 / 58.  5.100
  libavfilter     7. 40.101 /  7. 40.101
  libavresample   4.  0.  0 /  4.  0.  0
  libswscale      5.  3.100 /  5.  3.100
  libswresample   3.  3.100 /  3.  3.100
  libpostproc    55.  3.100 / 55.  3.100
[mov,mp4,m4a,3gp,3g2,mj2 @ 0x563f03207d40] Could not find codec parameters for stream 0 (Video: h264 (avc1 / 0x31637661), none, 640x480, 1243 kb/s): unspecified pixel format
Consider increasing the value for the 'analyzeduration' and 'probesize' options
Input #0, mov,mp4,m4a,3gp,3g2,mj2, from '/media/quentin/2A58AE9F16A70B2F/Cassettes/Année 1999 - Johan Solène Emeline - Baptême Johan (21-11-1999) - Noël Spectacle école (19-12-1999).mp4':
  Metadata:
    major_brand     : isom
    minor_version   : 512
    compatible_brands: isomiso2avc1mp41
    encoder         : Lavf58.20.100
  Duration:   Duration: 01:02:29.00, start: 0.020000, bitrate: 1378 kb/s
    Stream #0:0(eng): Video: h264 (avc1 / 0x31637661), none, 640x480, 1243 kb/s, SAR 1:1 DAR 4:3, 24.96 fps, 25 tbr, 90k tbn, 180k tbc (default)
    Metadata:
      handler_name    : VideoHandler
    Stream #0:1(eng): Audio: mp2 (mp4a / 0x6134706D), 44100 Hz, stereo, fltp, 127 kb/s (default)
    Metadata:
      handler_name    : SoundHandler
[mov,mp4,m4a,3gp,3g2,mj2 @ 0x563f0320ec80] Could not find codec parameters for stream 0 (Video: h264 (avc1 / 0x31637661), none, 640x480, 1243 kb/s): unspecified pixel format
Consider increasing the value for the 'analyzeduration' and 'probesize' options
Input #1, mov,mp4,m4a,3gp,3g2,mj2, from '/media/quentin/2A58AE9F16A70B2F/Cassettes/Année 1999 - Johan Solène Emeline - Baptême Johan (21-11-1999) - Noël Spectacle école (19-12-1999).mp4':
  Metadata:
    major_brand     : isom
    minor_version   : 512
    compatible_brands: isomiso2avc1mp41
    encoder         : Lavf58.20.100
  Duration: 01:02:29.00, start: 0.020000, bitrate: 1378 kb/s
    Stream #1:0(eng): Video: h264 (avc1 / 0x31637661), none, 640x480, 1243 kb/s, SAR 1:1 DAR 4:3, 24.96 fps, 25 tbr, 90k tbn, 180k tbc (default)
    Metadata:
      handler_name    : VideoHandler
    Stream #1:1(eng): Audio: mp2 (mp4a / 0x6134706D), 44100 Hz, stereo, fltp, 127 kb/s (default)
    Metadata:
      handler_name    : SoundHandler
Stream mapping:
  Stream #1:0 -> #0:0 (h264 (native) -> mpeg2video (native))
  Stream #0:1 -> #0:1 (mp2 (native) -> ac3 (native))
Press [q] to stop, [?] for help
Too many packets buffered for output st




- Quant à DVDstyler, de mémoire il grave directement le projet. Et idem, il échoue pendant la gravure sans me donner de logs...

Je vais essayer d'obtenir des logs en faisant d'autres essais. Mais si vous avez une solution que vous utilisez déjà et qui fonctionne, je suis preneur ! Merci d'avance smile

#17 Re : Présentations » Vous avez le "Salut !" de Gwennaelle » 02-10-2020 18:11:48

Bonjour et bienvenue ! smile

Au plaisir de répondre à tes questions et continuer d'enrichir les informations sur ce forum ! big_smile

#18 Re : Installation de Debian » [Résolu] Installation DFLinux sur Asus E402B » 02-10-2020 18:10:31

jarek a écrit :

Mais pour les mises à jour bpo je ne crois pas que DFLinux le fasse tout seul.
A mon avis il faut les exécuter explicitement.



Si, si wink
Quandon installe un paquet du dépôt backports, il suit les mises à jour depuis ce dépôt, sans avoir de manips particulières à faire smile

#19 Re : Matériel » HP Probook 450 ne s'éteint pas » 02-10-2020 09:44:34

Bonjour smile Est-ce que quelqu'un aurait une autre piste ? hmm

#20 Re : Projet Reconditionnement » Reconditionnement d'ordinateurs à destination des plus démunis » 01-10-2020 17:33:31

Ça marche, je comprend. Étape par étape, afin d'avoir un carte bien fournie et du matériel en stock avant de communiquer auprès des bénéficiaires smile

#21 Re : Installation de Debian » [Résolu] Installation DFLinux sur Asus E402B » 01-10-2020 17:32:20

Il me semble que Debian garde toujours 2 noyaux au minimum, donc autoremove doit conserver logiquement le 4.19 et le 5.7 pour le moment.

Quand tu recevras un nouveau noyau, le 4.19 sera automatiquement supprimé normalement wink

je ne m'y connais pas en analyse de logs de ce type et mise à jour de BIOS par contre hmm

#22 Re : Projet Reconditionnement » Reconditionnement d'ordinateurs à destination des plus démunis » 01-10-2020 11:59:06

Salut ! smile

Je prévois de communiquer prochainement sur ma participation à la campagne, à destination des bénéficiaires donc (particuliers démunis, associations etc.)

Pour le moment, l'image (https://debian-facile.org/images/file-R … f39894c53b) et la page de la campagne s'adressent surtout aux reconditionneurs. Est-ce qu'il est prévu pour la suite de mettre en place une communication à destination des bénéficiaires, que les reconditionneurs comme moi pourront relayer sur leurs réseaux ? smile

C'est une question et aussi une proposition d'y contribuer si besoin wink

#23 Re : Installation de Debian » [Résolu] Installation DFLinux sur Asus E402B » 01-10-2020 11:00:44

Ah super ! big_smile
Oui, il se mettra à jour tout seul wink Il changera de version régulièrement jusqu'au gel de la future version stable de Debian (11 Bullseye) il me semble.

Il se mettra à jour en même temps que tes mises à jour classiques, quelque-soit l'outil utilisé. Si tu as installé la 10.5-1, il n'y a plus pk-update-icon normalement, et les mises à jour sont automatiques. Mais tu es libre de ré-installer ce gestionnaire de mises à jour si tu le souhaites smile

#25 Re : Installation de Debian » [Résolu] Installation DFLinux sur Asus E402B » 30-09-2020 18:11:15

J'ai deux pistes, à tester indépendamment sur une installation vierge de préférence :

Solution 1 : Trouvaille avec le message d'erreur relevé par chalu : https://www.reddit.com/r/linuxquestions … desetting/

Pour le tester en session live :

- Dans le menu de boot de la clé, place toi sur l'option "tester Debian" et appuie sur TAB.
- Une ligne de commande apparaît, déplace toi après les mots quiet splash pour ajouter à la suite "amdgpu.dc=0" (sans les guillemets, et si tu es en qwerty, tapes q,dgpu:dc=à )
- démarre avec Entrée et regarde si les bugs sont toujours présents.

Si le test en live est concluant, voici comment l'appliquer sur le système installé :

Depuis ton système installé, édite ton fichier grub avec cette commande :

nano /etc/default/grub


C'est une commande root, donc dans DFiso, ajoutes-y le préfixe sudo :

sudo nano /etc/default/grub



Le fichier est comme ceci dans DFiso Buster normalement :

# If you change this file, run 'update-grub' afterwards to update
# /boot/grub/grub.cfg.
# For full documentation of the options in this file, see:
#   info -f grub -n 'Simple configuration'

GRUB_DEFAULT=0
GRUB_TIMEOUT=5
GRUB_DISTRIBUTOR=`lsb_release -i -s 2> /dev/null || echo Debian`
GRUB_CMDLINE_LINUX_DEFAULT="quiet splash"
GRUB_CMDLINE_LINUX="initrd=/install/gtk/initrd.gz"

# Uncomment to enable BadRAM filtering, modify to suit your needs
# This works with Linux (no patch required) and with any kernel that obtains
# the memory map information from GRUB (GNU Mach, kernel of FreeBSD ...)
#GRUB_BADRAM="0x01234567,0xfefefefe,0x89abcdef,0xefefefef"

# Uncomment to disable graphical terminal (grub-pc only)
#GRUB_TERMINAL=console

# The resolution used on graphical terminal
# note that you can use only modes which your graphic card supports via VBE
# you can see them in real GRUB with the command `vbeinfo'
#GRUB_GFXMODE=640x480

# Uncomment if you don't want GRUB to pass "root=UUID=xxx" parameter to Linux
#GRUB_DISABLE_LINUX_UUID=true

# Uncomment to disable generation of recovery mode menu entries
#GRUB_DISABLE_RECOVERY="true"

# Uncomment to get a beep at grub start
#GRUB_INIT_TUNE="480 440 1"



A la ligne GRUB_CMDLINE_LINUX_DEFAULT="quiet splash", ajoute le paramètre amdgpu.dc=0 pour obtenir ceci :

# If you change this file, run 'update-grub' afterwards to update
# /boot/grub/grub.cfg.
# For full documentation of the options in this file, see:
#   info -f grub -n 'Simple configuration'

GRUB_DEFAULT=0
GRUB_TIMEOUT=5
GRUB_DISTRIBUTOR=`lsb_release -i -s 2> /dev/null || echo Debian`
GRUB_CMDLINE_LINUX_DEFAULT="quiet splash amdgpu.dc=0"
GRUB_CMDLINE_LINUX="initrd=/install/gtk/initrd.gz"

# Uncomment to enable BadRAM filtering, modify to suit your needs
# This works with Linux (no patch required) and with any kernel that obtains
# the memory map information from GRUB (GNU Mach, kernel of FreeBSD ...)
#GRUB_BADRAM="0x01234567,0xfefefefe,0x89abcdef,0xefefefef"

# Uncomment to disable graphical terminal (grub-pc only)
#GRUB_TERMINAL=console

# The resolution used on graphical terminal
# note that you can use only modes which your graphic card supports via VBE
# you can see them in real GRUB with the command `vbeinfo'
#GRUB_GFXMODE=640x480

# Uncomment if you don't want GRUB to pass "root=UUID=xxx" parameter to Linux
#GRUB_DISABLE_LINUX_UUID=true

# Uncomment to disable generation of recovery mode menu entries
#GRUB_DISABLE_RECOVERY="true"

# Uncomment to get a beep at grub start
#GRUB_INIT_TUNE="480 440 1"



Pour enregistrer : Ctrl+X, puis la lettre O puis Entrée.

Puis pour appliquer :

sudo update-grub


le changement sera définitif smile

Solution 2 : Hypothèse que Manjaro marche mieux car elle a un noyau Linux plus récent.

Depuis ta Debian installée, essaye ceci :
Essaye d'ouvrir un terminal avec Super + T (Super = touche Windows)
Si ça ne marche pas, passer en console tty avec Ctrl+Alt+F1 fonctionnera aussi

Et saisis ceci  afin d'éditer ton sources.list

sudo nano /etc/apt/sources.list



Et ajoute cette ligne à la fin du fichier (dépôt buster-backports contenant des paquets plus récents) :

deb http://deb.debian.org/debian/ buster-backports main contrib non-free



Pour enregistrer : Ctrl+X, puis la lettre O puis Entrée.

Puis ensuite, saisis ces commandes pour installer un noyau Linux plus récents (issu du dépôts backports):

sudo apt update


sudo apt-get -t buster-backports install linux-image-amd64


Et redémarre ton ordi. Il y a des chances que ça améliore les choses ! smile

sudo nano /etc/default/grub

Pied de page des forums

Propulsé par FluxBB