Debian-facile

Bienvenue sur Debian-Facile, site d'aide pour les nouveaux utilisateurs de Debian.

Vous n'êtes pas identifié(e).

#26 17-11-2019 15:39:31

golgot200
Membre
Distrib. : Archlinux 2018-02-03
Noyau : 5.9.4-arch1-1
(G)UI : Mate (Strict Minimum)
Inscription : 05-08-2007

Re : Ripper DVD

sur ton post 10, j'avais pas fait gaffe, c'est quoi :



trefix@neness:~$ mount /dev/sr0
mount: /media/cdrom0: Attention: périphérique protégé en écriture, monté en lecture seule.
 



?

Hors ligne

#27 17-11-2019 15:42:21

golgot200
Membre
Distrib. : Archlinux 2018-02-03
Noyau : 5.9.4-arch1-1
(G)UI : Mate (Strict Minimum)
Inscription : 05-08-2007

Re : Ripper DVD

Trefix a écrit :

DVD monté ou pas (La flûte enchantée, Ed. Mezzo, 2013, acheté il y a six mois), le terminal ne donne pas de retour à ton lsdvd -a /dev/sr0 non plus. En root, alors ?

Pas mieux en root...



pas

lsdvd -a /dev/sr0



mais

lsdvd -a /dev/sr0 -t 01

Hors ligne

#28 17-11-2019 16:56:34

golgot200
Membre
Distrib. : Archlinux 2018-02-03
Noyau : 5.9.4-arch1-1
(G)UI : Mate (Strict Minimum)
Inscription : 05-08-2007

Re : Ripper DVD

On voit que sur certains DVD les infos font peur :

ID_DVD_CURRENT_TITLE=2
There are 1 angles in this DVD title.
audio stream: 0 format: ac3 (5.1) language: en aid: 128.

ID_AUDIO_ID=128
ID_AID_128_LANG=en
audio stream: 1 format: ac3 (5.1) language: fr aid: 128.

ID_AUDIO_ID=128
ID_AID_128_LANG=fr
audio stream: 2 format: ac3 (5.1) language: it aid: 128.

ID_AUDIO_ID=128
ID_AID_128_LANG=it
audio stream: 3 format: ac3 (stereo) language: en aid: 131.

ID_AUDIO_ID=131
ID_AID_131_LANG=en
audio stream: 4 format: ac3 (stereo) language: en aid: 131.



tongue

un :

sort -u



peut-être hmm

Je laisse un peu ce post pour voir sur celui dédié.

Dernière modification par golgot200 (17-11-2019 17:02:40)

Hors ligne

#29 17-11-2019 19:03:20

Trefix
Membre
Lieu : 48
Distrib. : buster 10.4 + bpo
Noyau : linux 4.19.0-9-amd64
(G)UI : Xfce4 4.12.5
Inscription : 15-02-2015

Re : Ripper DVD

Re.

Désolé, j'arrive. Ben je ne sais pas ce que c'est cette histoire de périphérique en lecture seule. Je suis emm... avec depuis l'installation de Buster (pas de lecture directe des CD mais Thunar permet d'extraire par simple glissé-déposé). J'avais choisi une netinstall main, disque entier et contrairement à mon habitude (héritée de HandyLinux puis kiss0s) j'ai créé un root et un user à l'install. Bref, je ne sais pas ce qui s'est emmanché de traviol... Lié à l'ajout a posteriori de contrib non-free ???

Bon, re le DVD ch... et :

lsdvd -a /dev/sr0 -t 01

Disc Title: DEFAULTPAL_SCN
Title: 01, Length: 01:47:33.880 Chapters: 10, Cells: 11, Audio streams: 02, Subpictures: 01
  Audio: 1, Language: fr - Francais, Format: ac3, Frequency: 48000, Quantization: drc, Channels: 2, AP: 0, Content: Undefined, Stream id: 0x80
  Audio: 2, Language: en - English, Format: ac3, Frequency: 48000, Quantization: drc, Channels: 6, AP: 0, Content: Undefined, Stream id: 0x81
 



et l'extraction de La flûte... Il manque le début, je ne sais pas trop pourquoi. Capacité d'affichage du terminal ?...

[libx264 @ 0x55e3004a0fc0] using SAR=32/27######################################
[libx264 @ 0x55e3004a0fc0] using cpu capabilities: MMX2 SSE2Fast SSSE3 SSE4.2
[libx264 @ 0x55e3004a0fc0] profile High, level 3.0
[libx264 @ 0x55e3004a0fc0] 264 - core 155 r2917 0a84d98 - H.264/MPEG-4 AVC codec - Copyleft 2003-2018 - http://www.videolan.org/x264.html - options: cabac=1 ref=5 deblock=1:1:1 analyse=0x3:0x113 me=hex subme=8 psy=1 psy_rd=1.00:0.00 mixed_ref=1 me_range=6 chroma_me=1 trellis=2 8x8dct=1 cqm=0 deadzone=21,11 fast_pskip=1 chroma_qp_offset=-2 threads=3 lookahead_threads=1 sliced_threads=0 nr=0 decimate=1 interlaced=0 bluray_compat=0 constrained_intra=0 bframes=10 b_pyramid=2 b_adapt=1 b_bias=0 direct=3 weightb=1 open_gop=0 weightp=2 keyint=300 keyint_min=25 scenecut=42 intra_refresh=0 rc_lookahead=50 rc=cbr mbtree=1 bitrate=4000 ratetol=1.0 qcomp=0.60 qpmin=0 qpmax=52 qpstep=4 vbv_maxrate=4000 vbv_bufsize=8000 nal_hrd=none filler=0 ip_ratio=1.40 aq=1:1.00
Output #0, matroska, to '/home/trefix/Bureau/ARCHIVAGE_DVD/ZAUBERFLOETE_DVD1-UUID="431a548300000000"/3-ZAUBERFLOETE_DVD1.mkv':
  Metadata:
    title           : ZAUBERFLOETE_DVD1
    encoder         : Lavf58.20.100
    Stream #0:0: Video: h264 (libx264), 1 reference frame (H264 / 0x34363248), yuv420p(left), 720x480 [SAR 32:27 DAR 16:9], q=0-52, 4000 kb/s, 29.97 fps, 1k tbn, 29.97 tbc
    Metadata:
      encoder         : Lavc58.35.100 libx264
    Side data:
      cpb: bitrate max/min/avg: 4000000/0/4000000 buffer size: 8000000 vbv_delay: -1
[libx264 @ 0x55e3004a0fc0] non-strictly-monotonic PTS
frame=   60 fps=0.0 q=0.0 size=       1kB time=00:00:00.00 bitrate=N/A speed=   frame=   99 fps= 98 q=0.0 size=       1kB time=00:00:01.00 bitrate=   6.1kbits/sframe=  140 fps= 92 q=0.0 size=       1kB time=00:00:02.37 bitrate=   2.6kbits/sframe=  180 fps= 89 q=0.0 size=       1kB time=00:00:03.70 bitrate=   1.6kbits/sNo more output streams to write to, finishing.
frame=  180 fps= 71 q=-1.0 Lsize=     262kB time=00:00:05.84 bitrate= 367.9kbits/s speed=2.31x    
video:260kB audio:0kB subtitle:0kB other streams:0kB global headers:0kB muxing overhead: 0.774048%
Input file #0 (/home/trefix/Bureau/ARCHIVAGE_DVD/ZAUBERFLOETE_DVD1-UUID="431a548300000000"/3-ZAUBERFLOETE_DVD1.vob):
  Input stream #0:0 (video): 180 packets read (5065873 bytes); 180 frames decoded;
  Total: 180 packets (5065873 bytes) demuxed####################################
Output file #0 (/home/trefix/Bureau/ARCHIVAGE_DVD/ZAUBERFLOETE_DVD1-UUID="431a548300000000"/3-ZAUBERFLOETE_DVD1.mkv):
  Output stream #0:0 (video): 180 frames encoded; 180 packets muxed (266521 bytes);
  Total: 180 packets (266521 bytes) muxed#######################################
[AVIOContext @ 0x55e300473480] Statistics: 14 seeks, 11 writeouts###############
[libx264 @ 0x55e3004a0fc0] frame I:1     Avg QP: 0.00  size: 54056##############
[libx264 @ 0x55e3004a0fc0] frame P:20    Avg QP: 0.06  size:  1898
[libx264 @ 0x55e3004a0fc0] frame B:159   Avg QP: 2.51  size:  1093
[libx264 @ 0x55e3004a0fc0] consecutive B-frames:  0.6%  0.0%  1.7%  0.0%  0.0%  3.3%  0.0%  4.4% 60.0%  5.6% 24.4%
[libx264 @ 0x55e3004a0fc0] mb I  I16..4: 100.0%  0.0%  0.0%
[libx264 @ 0x55e3004a0fc0] mb P  I16..4:  0.0%  0.0%  0.1%  P16..4:  2.1%  0.1%  0.1%  0.0%  0.0%    skip:97.5%
[libx264 @ 0x55e3004a0fc0] mb B  I16..4:  0.0%  0.0%  0.0%  B16..8:  1.6%  0.1%  0.1%  direct: 1.7%  skip:96.6%  L0:50.2% L1:29.5% BI:20.2%
[libx264 @ 0x55e3004a0fc0] 8x8 transform intra:0.0% inter:16.9%
[libx264 @ 0x55e3004a0fc0] direct mvs  spatial:88.7% temporal:11.3%
[libx264 @ 0x55e3004a0fc0] coded y,uvDC,uvAC intra: 1.9% 100.0% 100.0% inter: 1.7% 0.0% 0.0%
[libx264 @ 0x55e3004a0fc0] i16 v,h,dc,p: 96%  0%  3%  0%
[libx264 @ 0x55e3004a0fc0] i4 v,h,dc,ddl,ddr,vr,hd,vl,hu: 51% 20% 10%  4%  3%  4%  3%  2%  3%
[libx264 @ 0x55e3004a0fc0] i8c dc,h,v,p: 75%  3%  2% 20%
[libx264 @ 0x55e3004a0fc0] Weighted P-Frames: Y:35.0% UV:0.0%
[libx264 @ 0x55e3004a0fc0] ref P L0: 98.1%  1.5%  0.3%  0.0%  0.1%
[libx264 @ 0x55e3004a0fc0] ref B L0: 54.3% 45.1%  0.5%  0.1%
[libx264 @ 0x55e3004a0fc0] ref B L1: 98.7%  1.3%
[libx264 @ 0x55e3004a0fc0] kb/s:353.99
[AVIOContext @ 0x55e300474180] Statistics: 10535056 bytes read, 2 seeks
Encodage sur VOB sans audio OK##################################################
mkvmerge v31.0.0 ('Dolores In A Shoestand') 64-bit
« /home/trefix/Bureau/ARCHIVAGE_DVD/ZAUBERFLOETE_DVD1-UUID="431a548300000000"/3-ZAUBERFLOETE_DVD1.mkv » : Utilisation du démultiplexeur pour le format « Matroska ».
« /home/trefix/Bureau/ARCHIVAGE_DVD/ZAUBERFLOETE_DVD1-UUID="431a548300000000"/3-ZAUBERFLOETE_DVD1.mkv » piste 0 : Utilisation du module de sortie pour le format « AVC/H.264 ».
Le fichier « /home/trefix/Bureau/ARCHIVAGE_DVD/ZAUBERFLOETE_DVD1-UUID="431a548300000000"/3-ZAUBERFLOETE_DVD1-[OUT_CHAPTERS].mkv » est ouvert en écriture.
Progression : 100%
Les entrées CUE (l'index) sont en cours d'écriture…
Le multiplexage a pris 0 seconde.
MPlayer 1.3.0 (Debian), built with gcc-8 (C) 2000-2016 MPlayer Team
Can't open joystick device /dev/input/js0: No such file or directory
Can't init input joystick
do_connect: could not connect to socket
connect: No such file or directory
Failed to open LIRC support. You will not be able to use your remote control.

Playing dvd://4.
Limiting DVD speed to 16200KB/s... successful
There are 8 titles on this DVD.
There are 1 angles in this DVD title.

libdvdread: Attempting to retrieve all CSS keys
libdvdread: This can take a _long_ time, please be patient

libdvdread: Get key for /VIDEO_TS/VIDEO_TS.VOB at 0x00000132
libdvdread: Elapsed time 0
libdvdread: Get key for /VIDEO_TS/VTS_01_1.VOB at 0x0001cf76
libdvdread: Elapsed time 0
libdvdread: Get key for /VIDEO_TS/VTS_02_0.VOB at 0x0001f92c
libdvdread: Elapsed time 0
libdvdread: Get key for /VIDEO_TS/VTS_02_1.VOB at 0x0001f9e6
libdvdread: Elapsed time 0
libdvdread: Get key for /VIDEO_TS/VTS_03_1.VOB at 0x0026d6d8
libdvdread: Elapsed time 0
libdvdread: Get key for /VIDEO_TS/VTS_04_1.VOB at 0x002e9dab
libdvdread: Elapsed time 0
libdvdread: Get key for /VIDEO_TS/VTS_05_1.VOB at 0x0033aa5f
libdvdread: Elapsed time 0
libdvdread: Found 5 VTS's
libdvdread: Elapsed time 0
number of audio channels on disk: 0.
number of subtitles on disk: 0

dump: 5177344 bytes written to '/home/trefix/Bureau/ARCHIVAGE_DVD/ZAUBERFLOETE_DVD1-UUID="431a548300000000"/4-ZAUBERFLOETE_DVD1.vob'.
Core dumped ;)
Restoring DVD speed... successful

Exiting... (End of file)
VOB sans stream audio détecté
ffmpeg version 4.1.4-1~deb10u1 Copyright (c) 2000-2019 the FFmpeg developers
  built with gcc 8 (Debian 8.3.0-6)
  configuration: --prefix=/usr --extra-version='1~deb10u1' --toolchain=hardened --libdir=/usr/lib/x86_64-linux-gnu --incdir=/usr/include/x86_64-linux-gnu --arch=amd64 --enable-gpl --disable-stripping --enable-avresample --disable-filter=resample --enable-avisynth --enable-gnutls --enable-ladspa --enable-libaom --enable-libass --enable-libbluray --enable-libbs2b --enable-libcaca --enable-libcdio --enable-libcodec2 --enable-libflite --enable-libfontconfig --enable-libfreetype --enable-libfribidi --enable-libgme --enable-libgsm --enable-libjack --enable-libmp3lame --enable-libmysofa --enable-libopenjpeg --enable-libopenmpt --enable-libopus --enable-libpulse --enable-librsvg --enable-librubberband --enable-libshine --enable-libsnappy --enable-libsoxr --enable-libspeex --enable-libssh --enable-libtheora --enable-libtwolame --enable-libvidstab --enable-libvorbis --enable-libvpx --enable-libwavpack --enable-libwebp --enable-libx265 --enable-libxml2 --enable-libxvid --enable-libzmq --enable-libzvbi --enable-lv2 --enable-omx --enable-openal --enable-opengl --enable-sdl2 --enable-libdc1394 --enable-libdrm --enable-libiec61883 --enable-chromaprint --enable-frei0r --enable-libx264 --enable-shared
  libavutil      56. 22.100 / 56. 22.100
  libavcodec     58. 35.100 / 58. 35.100
  libavformat    58. 20.100 / 58. 20.100
  libavdevice    58.  5.100 / 58.  5.100
  libavfilter     7. 40.101 /  7. 40.101
  libavresample   4.  0.  0 /  4.  0.  0
  libswscale      5.  3.100 /  5.  3.100
  libswresample   3.  3.100 /  3.  3.100
  libpostproc    55.  3.100 / 55.  3.100
Input #0, mpeg, from '/home/trefix/Bureau/ARCHIVAGE_DVD/ZAUBERFLOETE_DVD1-UUID="431a548300000000"/4-ZAUBERFLOETE_DVD1.vob':
  Duration: 00:00:05.74, start: 0.347367, bitrate: 7216 kb/s
    Stream #0:0[0x1e0]: Video: mpeg2video (Main), 1 reference frame, yuv420p(tv, progressive, left), 720x480 [SAR 32:27 DAR 16:9], 8000 kb/s, 29.97 fps, 29.97 tbr, 90k tbn, 59.94 tbc
Stream mapping:
  Stream #0:0 -> #0:0 (mpeg2video (native) -> h264 (libx264))
Press [q] to stop, [?] for help
[Parsed_hue_0 @ 0x562496abd880] H_expr:(null) h_deg_expr:(null) s_expr:0.7 b_expr:0.0
[Parsed_hqdn3d_1 @ 0x562496abe180] ls:1.500000 cs:1.500000 lt:4.000000 ct:4.000000
[graph 0 input from stream 0:0 @ 0x562496abe780] w:720 h:480 pixfmt:yuv420p tb:1/90000 fr:30000/1001 sar:32/27 sws_param:flags=2
[Parsed_unsharp_2 @ 0x562496d50ac0] effect:sharpen type:luma msize_x:5 msize_y:5 amount:0.50
[Parsed_unsharp_2 @ 0x562496d50ac0] effect:none type:chroma msize_x:5 msize_y:5 amount:0.00
[libx264 @ 0x562496aaffc0] using SAR=32/27######################################
[libx264 @ 0x562496aaffc0] using cpu capabilities: MMX2 SSE2Fast SSSE3 SSE4.2
[libx264 @ 0x562496aaffc0] profile High, level 3.0
[libx264 @ 0x562496aaffc0] 264 - core 155 r2917 0a84d98 - H.264/MPEG-4 AVC codec - Copyleft 2003-2018 - http://www.videolan.org/x264.html - options: cabac=1 ref=5 deblock=1:1:1 analyse=0x3:0x113 me=hex subme=8 psy=1 psy_rd=1.00:0.00 mixed_ref=1 me_range=6 chroma_me=1 trellis=2 8x8dct=1 cqm=0 deadzone=21,11 fast_pskip=1 chroma_qp_offset=-2 threads=3 lookahead_threads=1 sliced_threads=0 nr=0 decimate=1 interlaced=0 bluray_compat=0 constrained_intra=0 bframes=10 b_pyramid=2 b_adapt=1 b_bias=0 direct=3 weightb=1 open_gop=0 weightp=2 keyint=300 keyint_min=25 scenecut=42 intra_refresh=0 rc_lookahead=50 rc=cbr mbtree=1 bitrate=4000 ratetol=1.0 qcomp=0.60 qpmin=0 qpmax=52 qpstep=4 vbv_maxrate=4000 vbv_bufsize=8000 nal_hrd=none filler=0 ip_ratio=1.40 aq=1:1.00
Output #0, matroska, to '/home/trefix/Bureau/ARCHIVAGE_DVD/ZAUBERFLOETE_DVD1-UUID="431a548300000000"/4-ZAUBERFLOETE_DVD1.mkv':
  Metadata:
    title           : ZAUBERFLOETE_DVD1
    encoder         : Lavf58.20.100
    Stream #0:0: Video: h264 (libx264), 1 reference frame (H264 / 0x34363248), yuv420p(left), 720x480 [SAR 32:27 DAR 16:9], q=0-52, 4000 kb/s, 29.97 fps, 1k tbn, 29.97 tbc
    Metadata:
      encoder         : Lavc58.35.100 libx264
    Side data:
      cpb: bitrate max/min/avg: 4000000/0/4000000 buffer size: 8000000 vbv_delay: -1
[libx264 @ 0x562496aaffc0] non-strictly-monotonic PTS
frame=   57 fps=0.0 q=0.0 size=       1kB time=00:00:00.00 bitrate=N/A speed=   frame=   91 fps= 90 q=0.0 size=       1kB time=00:00:00.73 bitrate=   8.3kbits/sframe=  127 fps= 84 q=0.0 size=       1kB time=00:00:01.93 bitrate=   3.2kbits/sframe=  164 fps= 81 q=0.0 size=       1kB time=00:00:03.17 bitrate=   1.9kbits/sNo more output streams to write to, finishing.
frame=  180 fps= 62 q=-1.0 Lsize=     522kB time=00:00:05.84 bitrate= 732.0kbits/s speed=2.02x    
video:520kB audio:0kB subtitle:0kB other streams:0kB global headers:0kB muxing overhead: 0.394193%
Input file #0 (/home/trefix/Bureau/ARCHIVAGE_DVD/ZAUBERFLOETE_DVD1-UUID="431a548300000000"/4-ZAUBERFLOETE_DVD1.vob):
  Input stream #0:0 (video): 180 packets read (5096870 bytes); 180 frames decoded;
  Total: 180 packets (5096870 bytes) demuxed####################################
Output file #0 (/home/trefix/Bureau/ARCHIVAGE_DVD/ZAUBERFLOETE_DVD1-UUID="431a548300000000"/4-ZAUBERFLOETE_DVD1.mkv):
  Output stream #0:0 (video): 180 frames encoded; 180 packets muxed (532227 bytes);
  Total: 180 packets (532227 bytes) muxed#######################################
[AVIOContext @ 0x562496ab3c40] Statistics: 16 seeks, 13 writeouts###############
[libx264 @ 0x562496aaffc0] frame I:1     Avg QP: 2.71  size: 47058##############
[libx264 @ 0x562496aaffc0] frame P:21    Avg QP: 0.00  size:  4558
[libx264 @ 0x562496aaffc0] frame B:158   Avg QP: 1.66  size:  2460
[libx264 @ 0x562496aaffc0] consecutive B-frames:  0.6%  1.1%  0.0%  0.0%  0.0% 10.0%  0.0%  4.4% 60.0%  5.6% 18.3%
[libx264 @ 0x562496aaffc0] mb I  I16..4: 100.0%  0.0%  0.0%
[libx264 @ 0x562496aaffc0] mb P  I16..4:  0.0%  0.0%  0.0%  P16..4:  6.0%  0.1%  0.1%  0.0%  0.0%    skip:93.7%
[libx264 @ 0x562496aaffc0] mb B  I16..4:  0.0%  0.0%  0.0%  B16..8:  3.4%  0.2%  0.1%  direct: 4.8%  skip:91.5%  L0:54.6% L1:28.6% BI:16.8%
[libx264 @ 0x562496aaffc0] 8x8 transform intra:0.1% inter:10.7%
[libx264 @ 0x562496aaffc0] direct mvs  spatial:97.5% temporal:2.5%
[libx264 @ 0x562496aaffc0] coded y,uvDC,uvAC intra: 0.7% 100.0% 100.0% inter: 3.2% 1.9% 1.9%
[libx264 @ 0x562496aaffc0] i16 v,h,dc,p: 97%  0%  3%  0%
[libx264 @ 0x562496aaffc0] i8 v,h,dc,ddl,ddr,vr,hd,vl,hu: 75%  0% 25%  0%  0%  0%  0%  0%  0%
[libx264 @ 0x562496aaffc0] i4 v,h,dc,ddl,ddr,vr,hd,vl,hu: 26%  8% 26%  6%  5%  4%  9%  8%  9%
[libx264 @ 0x562496aaffc0] i8c dc,h,v,p: 77%  3%  2% 19%
[libx264 @ 0x562496aaffc0] Weighted P-Frames: Y:38.1% UV:0.0%
[libx264 @ 0x562496aaffc0] ref P L0: 98.4%  0.5%  1.0%  0.0%  0.0%
[libx264 @ 0x562496aaffc0] ref B L0: 43.1% 56.7%  0.2%  0.1%
[libx264 @ 0x562496aaffc0] ref B L1: 99.4%  0.6%
[libx264 @ 0x562496aaffc0] kb/s:707.91
[AVIOContext @ 0x562496a87180] Statistics: 10604688 bytes read, 2 seeks
Encodage sur VOB sans audio OK##################################################
mkvmerge v31.0.0 ('Dolores In A Shoestand') 64-bit
« /home/trefix/Bureau/ARCHIVAGE_DVD/ZAUBERFLOETE_DVD1-UUID="431a548300000000"/4-ZAUBERFLOETE_DVD1.mkv » : Utilisation du démultiplexeur pour le format « Matroska ».
« /home/trefix/Bureau/ARCHIVAGE_DVD/ZAUBERFLOETE_DVD1-UUID="431a548300000000"/4-ZAUBERFLOETE_DVD1.mkv » piste 0 : Utilisation du module de sortie pour le format « AVC/H.264 ».
Le fichier « /home/trefix/Bureau/ARCHIVAGE_DVD/ZAUBERFLOETE_DVD1-UUID="431a548300000000"/4-ZAUBERFLOETE_DVD1-[OUT_CHAPTERS].mkv » est ouvert en écriture.
Progression : 100%
Les entrées CUE (l'index) sont en cours d'écriture…
Le multiplexage a pris 0 seconde.
MPlayer 1.3.0 (Debian), built with gcc-8 (C) 2000-2016 MPlayer Team
Can't open joystick device /dev/input/js0: No such file or directory
Can't init input joystick
do_connect: could not connect to socket
connect: No such file or directory
Failed to open LIRC support. You will not be able to use your remote control.

Playing dvd://5.
Limiting DVD speed to 16200KB/s... successful
There are 8 titles on this DVD.
There are 1 angles in this DVD title.

libdvdread: Attempting to retrieve all CSS keys
libdvdread: This can take a _long_ time, please be patient

libdvdread: Get key for /VIDEO_TS/VIDEO_TS.VOB at 0x00000132
libdvdread: Elapsed time 0
libdvdread: Get key for /VIDEO_TS/VTS_01_1.VOB at 0x0001cf76
libdvdread: Elapsed time 0
libdvdread: Get key for /VIDEO_TS/VTS_02_0.VOB at 0x0001f92c
libdvdread: Elapsed time 0
libdvdread: Get key for /VIDEO_TS/VTS_02_1.VOB at 0x0001f9e6
libdvdread: Elapsed time 0
libdvdread: Get key for /VIDEO_TS/VTS_03_1.VOB at 0x0026d6d8
libdvdread: Elapsed time 0
libdvdread: Get key for /VIDEO_TS/VTS_04_1.VOB at 0x002e9dab
libdvdread: Elapsed time 0
libdvdread: Get key for /VIDEO_TS/VTS_05_1.VOB at 0x0033aa5f
libdvdread: Elapsed time 0
libdvdread: Found 5 VTS's
libdvdread: Elapsed time 0
audio stream: 0 format: lpcm (stereo) language: de aid: 160.
audio stream: 1 format: ac3 (5.1) language: de aid: 129.
audio stream: 2 format: dts (5.1) language: de aid: 138.
number of audio channels on disk: 3.
subtitle ( sid ): 0 language: en
subtitle ( sid ): 1 language: de
subtitle ( sid ): 2 language: fr
subtitle ( sid ): 3 language: es
subtitle ( sid ): 4 language: ja
number of subtitles on disk: 5
dump: 4929269760 bytes written (~100.0%)
dump: 4930965504 bytes written to '/home/trefix/Bureau/ARCHIVAGE_DVD/ZAUBERFLOETE_DVD1-UUID="431a548300000000"/5-ZAUBERFLOETE_DVD1.vob'.
Core dumped ;)
Restoring DVD speed... successful

Exiting... (End of file)
Encodage du concert
ffmpeg version 4.1.4-1~deb10u1 Copyright (c) 2000-2019 the FFmpeg developers
  built with gcc 8 (Debian 8.3.0-6)
  configuration: --prefix=/usr --extra-version='1~deb10u1' --toolchain=hardened --libdir=/usr/lib/x86_64-linux-gnu --incdir=/usr/include/x86_64-linux-gnu --arch=amd64 --enable-gpl --disable-stripping --enable-avresample --disable-filter=resample --enable-avisynth --enable-gnutls --enable-ladspa --enable-libaom --enable-libass --enable-libbluray --enable-libbs2b --enable-libcaca --enable-libcdio --enable-libcodec2 --enable-libflite --enable-libfontconfig --enable-libfreetype --enable-libfribidi --enable-libgme --enable-libgsm --enable-libjack --enable-libmp3lame --enable-libmysofa --enable-libopenjpeg --enable-libopenmpt --enable-libopus --enable-libpulse --enable-librsvg --enable-librubberband --enable-libshine --enable-libsnappy --enable-libsoxr --enable-libspeex --enable-libssh --enable-libtheora --enable-libtwolame --enable-libvidstab --enable-libvorbis --enable-libvpx --enable-libwavpack --enable-libwebp --enable-libx265 --enable-libxml2 --enable-libxvid --enable-libzmq --enable-libzvbi --enable-lv2 --enable-omx --enable-openal --enable-opengl --enable-sdl2 --enable-libdc1394 --enable-libdrm --enable-libiec61883 --enable-chromaprint --enable-frei0r --enable-libx264 --enable-shared
  libavutil      56. 22.100 / 56. 22.100
  libavcodec     58. 35.100 / 58. 35.100
  libavformat    58. 20.100 / 58. 20.100
  libavdevice    58.  5.100 / 58.  5.100
  libavfilter     7. 40.101 /  7. 40.101
  libavresample   4.  0.  0 /  4.  0.  0
  libswscale      5.  3.100 /  5.  3.100
  libswresample   3.  3.100 /  3.  3.100
  libpostproc    55.  3.100 / 55.  3.100
[mpeg @ 0x5601f96b0640] parser not found for codec pcm_dvd, packets or times may be invalid.
Guessed Channel Layout for Input Stream #0.1 : stereo###########################
Input #0, mpeg, from '/home/trefix/Bureau/ARCHIVAGE_DVD/ZAUBERFLOETE_DVD1-UUID="431a548300000000"/5-ZAUBERFLOETE_DVD1.vob':
  Duration: 01:08:53.90, start: 0.280633, bitrate: 9542 kb/s
    Stream #0:0[0x1e0]: Video: mpeg2video (Main), 1 reference frame, yuv420p(tv, top first, left), 720x480 [SAR 32:27 DAR 16:9], 7200 kb/s, 29.97 fps, 29.97 tbr, 90k tbn, 59.94 tbc
    Stream #0:1[0xa0]: Audio: pcm_dvd, 48000 Hz, stereo, s16, 1536 kb/s
    Stream #0:2[0x81]: Audio: ac3, 48000 Hz, 5.1(side), fltp, 448 kb/s
    Stream #0:3[0x8a]: Audio: dts (DTS), 48000 Hz, 5.1(side), fltp, 768 kb/s
    Stream #0:4[0x20]: Subtitle: dvd_subtitle
    Stream #0:5[0x21]: Subtitle: dvd_subtitle
    Stream #0:6[0x22]: Subtitle: dvd_subtitle
    Stream #0:7[0x23]: Subtitle: dvd_subtitle
    Stream #0:8[0x24]: Subtitle: dvd_subtitle
[mpeg @ 0x5601f96b0640] Invalid stream specifier: 0-map.
[mpeg @ 0x5601f96b0640] Invalid stream specifier: i:0-map.######################
[mpeg @ 0x5601f96b0640] Invalid stream specifier: 0-map.########################
[mpeg @ 0x5601f96b0640] Invalid stream specifier: i:0-map.######################
[mpeg @ 0x5601f96b0640] Invalid stream specifier: 0-map.########################
[mpeg @ 0x5601f96b0640] Invalid stream specifier: i:0-map.######################
[mpeg @ 0x5601f96b0640] Invalid stream specifier: 0-map.########################
[mpeg @ 0x5601f96b0640] Invalid stream specifier: i:0-map.######################
[mpeg @ 0x5601f96b0640] Invalid stream specifier: 0-map.########################
[mpeg @ 0x5601f96b0640] Invalid stream specifier: i:0-map.######################
[mpeg @ 0x5601f96b0640] Invalid stream specifier: 0-map.########################
[mpeg @ 0x5601f96b0640] Invalid stream specifier: i:0-map.######################
[mpeg @ 0x5601f96b0640] Invalid stream specifier: 0-map.########################
[mpeg @ 0x5601f96b0640] Invalid stream specifier: i:0-map.######################
[mpeg @ 0x5601f96b0640] Invalid stream specifier: 0-map.########################
[mpeg @ 0x5601f96b0640] Invalid stream specifier: i:0-map.######################
[mpeg @ 0x5601f96b0640] Invalid stream specifier: 0-map.########################
[mpeg @ 0x5601f96b0640] Invalid stream specifier: i:0-map.######################
Stream map 'i:0-map' matches no streams.########################################
To ignore this, add a trailing '?' to the map.##################################
[AVIOContext @ 0x5601f96b9840] Statistics: 1015894160 bytes read, 3 seeks#######
Encodage du VOB avec LPCM ... OK################################################
mkvmerge v31.0.0 ('Dolores In A Shoestand') 64-bit
Erreur : Le fichier « /home/trefix/Bureau/ARCHIVAGE_DVD/ZAUBERFLOETE_DVD1-UUID="431a548300000000"/5-ZAUBERFLOETE_DVD1.mkv » ne peut pas être ouvert en lecture : open file error.
MPlayer 1.3.0 (Debian), built with gcc-8 (C) 2000-2016 MPlayer Team
Can't open joystick device /dev/input/js0: No such file or directory
Can't init input joystick
do_connect: could not connect to socket
connect: No such file or directory
Failed to open LIRC support. You will not be able to use your remote control.

Playing dvdnav://5.
libdvdnav: Using dvdnav version 6.0.0
libdvdnav: DVD Title: Zauberfloete_DVD1
libdvdnav: DVD Serial Number: 431a5483
libdvdnav: DVD Title (Alternative):
libdvdnav: DVD disk reports itself with Region mask 0x00000000. Regions: 1 2 3 4 5 6 7 8

libdvdread: Attempting to retrieve all CSS keys
libdvdread: This can take a _long_ time, please be patient

libdvdread: Get key for /VIDEO_TS/VIDEO_TS.VOB at 0x00000132
libdvdread: Elapsed time 0
libdvdread: Get key for /VIDEO_TS/VTS_01_1.VOB at 0x0001cf76
libdvdread: Elapsed time 0
libdvdread: Get key for /VIDEO_TS/VTS_02_0.VOB at 0x0001f92c
libdvdread: Elapsed time 0
libdvdread: Get key for /VIDEO_TS/VTS_02_1.VOB at 0x0001f9e6
libdvdread: Elapsed time 0
libdvdread: Get key for /VIDEO_TS/VTS_03_1.VOB at 0x0026d6d8
libdvdread: Elapsed time 0
libdvdread: Get key for /VIDEO_TS/VTS_04_1.VOB at 0x002e9dab
libdvdread: Elapsed time 0
libdvdread: Get key for /VIDEO_TS/VTS_05_1.VOB at 0x0033aa5f
libdvdread: Elapsed time 0
libdvdread: Found 5 VTS's
libdvdread: Elapsed time 0
ID_DVD_VOLUME_ID=Zauberfloete_DVD1
ID_DVD_CURRENT_TITLE=5
ID_DVD_TITLE_5_LENGTH=4130.400
ID_DVD_TITLE_5_CHAPTERS=22
TITLE 5, CHAPTERS: 00:00:44,00:07:24,00:14:16,00:14:43,00:17:42,00:22:26,00:26:22,00:27:29,00:32:20,00:32:31,00:38:19,00:40:09,00:43:08,00:45:59,00:47:18,00:55:40,00:58:26,01:01:30,01:03:10,01:05:28,01:08:50,01:08:50,
audio stream: 0 format: lpcm (stereo) language: de aid: 160.

ID_AID_160_LANG=de
audio stream: 1 format: ac3 (5.1) language: de aid: 129.

ID_AID_129_LANG=de
audio stream: 2 format: dts (5.1) language: de aid: 2.

ID_AID_2_LANG=de
subtitle ( sid ): 0 language: en

ID_SID_0_LANG=en
subtitle ( sid ): 1 language: de

ID_SID_1_LANG=de
subtitle ( sid ): 2 language: fr

ID_SID_2_LANG=fr
subtitle ( sid ): 3 language: es

ID_SID_3_LANG=es
subtitle ( sid ): 4 language: ja

ID_SID_4_LANG=ja
INIT ERROR: couldn't get init pos New position not yet determined.
Remember to disable MPlayer's cache when playing dvdnav:// streams (adding -nocache to your command line)
DVDNAV, switched to title: 2
audio stream: 0 format: lpcm (stereo) language: de aid: 160.

ID_AID_160_LANG=de
audio stream: 1 format: ac3 (5.1) language: de aid: 129.

ID_AID_129_LANG=de
audio stream: 2 format: dts (5.1) language: de aid: 2.

ID_AID_2_LANG=de
subtitle ( sid ): 0 language: en

ID_SID_0_LANG=en
subtitle ( sid ): 1 language: de

ID_SID_1_LANG=de
subtitle ( sid ): 2 language: fr

ID_SID_2_LANG=fr
subtitle ( sid ): 3 language: es

ID_SID_3_LANG=es
subtitle ( sid ): 4 language: ja

ID_SID_4_LANG=ja
DVDNAV_TITLE_IS_MOVIE
ID_VIDEO_ID=0
DVDNAV_TITLE_IS_MOVIE
MPEG-PS file format detected.
ID_AUDIO_ID=160
VIDEO:  MPEG2  720x480  (aspect 3)  29.970 fps  7200.0 kbps (900.0 kbyte/s)
==========================================================================
Forced video codec: null
Opening video decoder: [null] Null video decoder
Movie-Aspect is 1.78:1 - prescaling to correct movie aspect.
ID_VIDEO_ASPECT=1.7778
VO: [null] 720x480 => 854x480 BGR 24-bit
Selected video codec: [null] vfm: null (NULL codec (no decoding!))
==========================================================================
ID_VIDEO_CODEC=null
ID_FILENAME=dvdnav://5
ID_DEMUXER=mpegps
ID_VIDEO_FORMAT=0x10000002
ID_VIDEO_BITRATE=7200000
ID_VIDEO_WIDTH=720
ID_VIDEO_HEIGHT=480
ID_VIDEO_FPS=29.970
ID_VIDEO_ASPECT=1.7778
ID_AUDIO_FORMAT=65537
ID_AUDIO_BITRATE=0
ID_AUDIO_RATE=0
ID_AUDIO_NCH=0
ID_START_TIME=0.28
ID_LENGTH=4130.40
ID_SEEKABLE=1
ID_CHAPTERS=22
==========================================================================
Opening audio decoder: [dvdpcm] Uncompressed DVD/VOB LPCM audio decoder
AUDIO: 48000 Hz, 2 ch, s16be, 1536.0 kbit/100.00% (ratio: 192000->192000)
ID_AUDIO_BITRATE=1536000
ID_AUDIO_RATE=48000
ID_AUDIO_NCH=2
Selected audio codec: [dvdpcm] afm: dvdpcm (Uncompressed DVD/VOB LPCM)
==========================================================================
[AO PCM] File: /home/trefix/Bureau/ARCHIVAGE_DVD/ZAUBERFLOETE_DVD1-UUID="431a548300000000"/[5-(0xa0)]-ZAUBERFLOETE_DVD1.wav (WAVE)
PCM: Samplerate: 48000Hz Channels: Stereo Format s16le
[AO PCM] Info: Faster dumping is achieved with -benchmark -vc null -vo null -ao pcm:fast
[AO PCM] Info: To write WAVE files use -ao pcm:waveheader (default).
AO: [pcm] 48000Hz 2ch s16le (2 bytes per sample)
ID_AUDIO_CODEC=dvdpcm
Starting playback...
ID_AUDIO_ID=129
ID_AUDIO_ID=138
A:   2.3 V:   2.1 A-V:  0.246 ct: -0.160  57/ 57  0%  0% 22.0% 51 0


           ************************************************
           **** Your system is too SLOW to play this!  ****
           ************************************************

Possible reasons, problems, workarounds:
- Most common: broken/buggy _audio_ driver
  - Try -ao sdl or use the OSS emulation of ALSA.
  - Experiment with different values for -autosync, 30 is a good start.
- Slow video output
  - Try a different -vo driver (-vo help for a list) or try -framedrop!
- Slow CPU
  - Don't try to play a big DVD/DivX on a slow CPU! Try some of the lavdopts,
    e.g. -vfm ffmpeg -lavdopts lowres=1:fast:skiploopfilter=all.
- Broken file
  - Try various combinations of -nobps -ni -forceidx -mc 0.
- Slow media (NFS/SMB mounts, DVD, VCD etc)
  - Try -cache 8192.
- Are you using -cache to play a non-interleaved AVI file?
  - Try -nocache.
Read DOCS/HTML/en/video.html for tuning/speedup tips.
If none of this helps you, read DOCS/HTML/en/bugreports.html.

A:  44.7 V:  44.4 A-V:  0.296 ct: -0.200 1324/1324  0%  0% 20.0% 1194 0
DVDNAV_TITLE_IS_MOVIE
A: 445.3 V: 445.0 A-V:  0.290 ct:  0.339 12006/12006  0%  0% 20.5% 12028 0
DVDNAV_TITLE_IS_MOVIE
A: 472.1 V: 471.8 A-V:  0.268 ct:  0.777 802/802  0%  0% 323.2% 12753 0
ID_SUBTITLE_ID=0
ID_SUBTITLE_ID=1
ID_SUBTITLE_ID=2
ID_SUBTITLE_ID=3
ID_SUBTITLE_ID=4
A: 857.4 V: 857.1 A-V:  0.281 ct:  0.776 12351/12351  0%  0% 37.4% 23173 0
DVDNAV_TITLE_IS_MOVIE
A: 884.1 V: 883.8 A-V:  0.269 ct:  1.115 799/799  0%  0% 593.2% 23895 0
DVDNAV_TITLE_IS_MOVIE
A:1063.9 V:1063.6 A-V:  0.292 ct:  1.679 5388/5388  0%  0% 104.0% 28758 0
DVDNAV_TITLE_IS_MOVIE
A:1347.7 V:1347.4 A-V:  0.270 ct:  2.050 8503/8503  0%  0% 81.0% 36431 0
DVDNAV_TITLE_IS_MOVIE
A:1583.6 V:1583.3 A-V:  0.295 ct:  2.386 7069/7069  0%  0% 110.0% 42810 0
DVDNAV_TITLE_IS_MOVIE
A:1650.8 V:1650.5 A-V:  0.272 ct:  2.957 2013/2013  0%  0% 399.5% 44628 0
DVDNAV_TITLE_IS_MOVIE
A:1942.8 V:1942.5 A-V:  0.286 ct:  3.428 8751/8751  0%  0% 104.6% 52525 0
DVDNAV_TITLE_IS_MOVIE
A:1952.8 V:1952.5 A-V:  0.291 ct:  3.797 298/298  0%  0% 3074.3% 52795 0
DVDNAV_TITLE_IS_MOVIE
A:2302.2 V:2301.9 A-V:  0.271 ct:  4.300 10471/10471  0%  0% 100.2% 62244 0
DVDNAV_TITLE_IS_MOVIE
A:2412.2 V:2412.0 A-V:  0.273 ct:  4.707 3297/3297  0%  0% 330.2% 65220 0
DVDNAV_TITLE_IS_MOVIE
A:2525.3 V:2525.0 A-V:  0.267 ct:  5.039 3387/3387  0%  0% 333.2% 68277 0
spudec: Error determining control type 0x22.  Skipping -6 bytes.
A:2590.5 V:2590.2 A-V:  0.297 ct:  5.039 5340/5340  0%  0% 215.7% 70039 0
DVDNAV_TITLE_IS_MOVIE
A:2762.5 V:2762.2 A-V:  0.287 ct:  5.641 5154/5154  0%  0% 234.8% 74691 0
DVDNAV_TITLE_IS_MOVIE
A:2840.9 V:2840.6 A-V:  0.294 ct:  6.214 2350/2350  0%  0% 525.7% 76813 0
DVDNAV_TITLE_IS_MOVIE
A:3343.9 V:3343.7 A-V:  0.281 ct:  6.747 15075/15075  0%  0% 92.5% 90416 0
DVDNAV_TITLE_IS_MOVIE
A:3509.7 V:3509.5 A-V:  0.281 ct:  7.280 4968/4968  0%  0% 291.3% 94900 0
DVDNAV_TITLE_IS_MOVIE
A:3694.1 V:3693.8 A-V:  0.277 ct:  7.588 5524/5524  0%  0% 272.9% 99885 0
DVDNAV_TITLE_IS_MOVIE
A:3794.1 V:3793.8 A-V:  0.283 ct:  7.893 2997/2997  0%  0% 513.4% 102590 0
DVDNAV_TITLE_IS_MOVIE
A:3932.2 V:3931.9 A-V:  0.292 ct:  8.325 4136/4136  0%  0% 383.0% 106323 0
DVDNAV_TITLE_IS_MOVIE
A:4133.3 V:4133.0 A-V:  0.281 ct:  8.694 6027/6027  0%  0% 274.1% 111762 0
DVDNAV_TITLE_IS_MOVIE
A:4133.4 V:   0.0 A-V:4133.378 ct:  8.698   0/  0 ??% ??% ??,?% 111762 0
DVDNAV, switched to title: 2
audio stream: 0 format: ac3 (stereo) language: unknown aid: 128.
audio stream: 1 format: ac3 (stereo) language: unknown aid: 129.
audio stream: 2 format: ac3 (stereo) language: unknown aid: 130.
audio stream: 3 format: ac3 (stereo) language: unknown aid: 131.
audio stream: 4 format: ac3 (stereo) language: unknown aid: 132.
audio stream: 5 format: ac3 (stereo) language: unknown aid: 133.
audio stream: 6 format: ac3 (stereo) language: unknown aid: 134.
audio stream: 7 format: ac3 (stereo) language: unknown aid: 135.
subtitle ( sid ): 0 language: unknown
subtitle ( sid ): 0 language: unknown
subtitle ( sid ): 0 language: unknown
subtitle ( sid ): 0 language: unknown
subtitle ( sid ): 0 language: unknown
subtitle ( sid ): 0 language: unknown
subtitle ( sid ): 0 language: unknown
subtitle ( sid ): 0 language: unknown
subtitle ( sid ): 0 language: unknown
subtitle ( sid ): 0 language: unknown
subtitle ( sid ): 0 language: unknown
subtitle ( sid ): 0 language: unknown
subtitle ( sid ): 0 language: unknown
subtitle ( sid ): 0 language: unknown
subtitle ( sid ): 0 language: unknown
subtitle ( sid ): 0 language: unknown
subtitle ( sid ): 0 language: unknown
subtitle ( sid ): 0 language: unknown
subtitle ( sid ): 0 language: unknown
subtitle ( sid ): 0 language: unknown
subtitle ( sid ): 0 language: unknown
subtitle ( sid ): 0 language: unknown
subtitle ( sid ): 0 language: unknown
subtitle ( sid ): 0 language: unknown
subtitle ( sid ): 0 language: unknown
subtitle ( sid ): 0 language: unknown
subtitle ( sid ): 0 language: unknown
subtitle ( sid ): 0 language: unknown
subtitle ( sid ): 0 language: unknown
subtitle ( sid ): 0 language: unknown
subtitle ( sid ): 0 language: unknown
subtitle ( sid ): 0 language: unknown
A:4133.4 V:   0.0 A-V:4133.378 ct:  8.701   0/  0 ??% ??% ??,?% 111762 0
DVDNAV_TITLE_IS_MENU
A:4133.4 V:   0.0 A-V:4133.378 ct:  8.704   0/  0 ??% ??% ??,?% 111762 0
ID_AUDIO_ID=128

Too many video packets in the buffer: (4096 in 8264095 bytes).
Maybe you are playing a non-interleaved stream/file or the codec failed?
For AVI files, try to force non-interleaved mode with the -ni option.
A:4133.4 V:   8.3 A-V:4125.089 ct:  9.485 280/280  0%  0% 5881.0% 111762 0
DVDNAV_TITLE_IS_MENU
A:4133.4 V:   8.3 A-V:4125.089 ct:  9.489 280/280  0%  0% 5849.8% 111762 0


BENCHMARKs: VC:   0.033s VO:   0.000s A: 551.407s Sys:  14.487s =  565.927s
BENCHMARK%: VC:  0.0057% VO:  0.0000% A: 97.4344% Sys:  2.5599% = 100.0000%

Exiting... (End of file)
ID_EXIT=EOF
MEncoder 1.3.0 (Debian), built with gcc-8 (C) 2000-2016 MPlayer Team
There are 8 titles on this DVD.
There are 1 angles in this DVD title.

libdvdread: Attempting to retrieve all CSS keys
libdvdread: This can take a _long_ time, please be patient

libdvdread: Get key for /VIDEO_TS/VIDEO_TS.VOB at 0x00000132
libdvdread: Elapsed time 0
libdvdread: Get key for /VIDEO_TS/VTS_01_1.VOB at 0x0001cf76
libdvdread: Elapsed time 0
libdvdread: Get key for /VIDEO_TS/VTS_02_0.VOB at 0x0001f92c
libdvdread: Elapsed time 0
libdvdread: Get key for /VIDEO_TS/VTS_02_1.VOB at 0x0001f9e6
libdvdread: Elapsed time 0
libdvdread: Get key for /VIDEO_TS/VTS_03_1.VOB at 0x0026d6d8
libdvdread: Elapsed time 0
libdvdread: Get key for /VIDEO_TS/VTS_04_1.VOB at 0x002e9dab
libdvdread: Elapsed time 0
libdvdread: Get key for /VIDEO_TS/VTS_05_1.VOB at 0x0033aa5f
libdvdread: Elapsed time 0
libdvdread: Found 5 VTS's
libdvdread: Elapsed time 0
audio stream: 0 format: lpcm (stereo) language: de aid: 160.
audio stream: 1 format: ac3 (5.1) language: de aid: 129.
audio stream: 2 format: dts (5.1) language: de aid: 138.
number of audio channels on disk: 3.
subtitle ( sid ): 0 language: en
subtitle ( sid ): 1 language: de
subtitle ( sid ): 2 language: fr
subtitle ( sid ): 3 language: es
subtitle ( sid ): 4 language: ja
number of subtitles on disk: 5

success: format: 2  data: 0x0 - 0x26e5d000
MPEG-PS file format detected.
VIDEO:  MPEG2  720x480  (aspect 3)  29.970 fps  7200.0 kbps (900.0 kbyte/s)
[V] filefmt:2  fourcc:0x10000002  size:720x480  fps:29.970  ftime:=0.0334
VobSub: Can't open IFO file
videocodec: framecopy (720x480 24bpp fourcc=10000002)
Writing header...
ODML: vprp aspect is 16:9.
Writing header...
ODML: vprp aspect is 16:9.
Pos:1301.8s  39016f (31%) 171.77fps Trem:   8min 3268mb  A-V:0.000 [6592:0]
ODML: Starting new RIFF chunk at 1023MB.
Pos:2603.4s  78025f (62%) 198.15fps Trem:   3min 3268mb  A-V:0.000 [6595:0]
ODML: Starting new RIFF chunk at 2047MB.
Pos:3879.5s 116269f (93%) 217.40fps Trem:   0min 3274mb  A-V:0.000 [6639:0]
ODML: Starting new RIFF chunk at 3071MB.
Pos:4134.2s 123902f (99%) 219.66fps Trem:   0min 3274mb  A-V:0.000 [6642:0]
Writing index...
Writing header...
ODML: vprp aspect is 16:9.

Video stream: 6642.005 kbit/s  (830250 B/s)  size: 3432419482 bytes  4134.197 secs  123902 frames
mkvmerge v31.0.0 ('Dolores In A Shoestand') 64-bit
Erreur : Le fichier « /home/trefix/Bureau/ARCHIVAGE_DVD/ZAUBERFLOETE_DVD1-UUID="431a548300000000"/5-ZAUBERFLOETE_DVD1-[OUT_CHAPTERS].mkv » ne peut pas être ouvert en lecture : open file error.
MPlayer 1.3.0 (Debian), built with gcc-8 (C) 2000-2016 MPlayer Team
Can't open joystick device /dev/input/js0: No such file or directory
Can't init input joystick
do_connect: could not connect to socket
connect: No such file or directory
Failed to open LIRC support. You will not be able to use your remote control.

Playing dvd://6.
Limiting DVD speed to 16200KB/s... successful
There are 8 titles on this DVD.
There are 1 angles in this DVD title.

libdvdread: Attempting to retrieve all CSS keys
libdvdread: This can take a _long_ time, please be patient

libdvdread: Get key for /VIDEO_TS/VIDEO_TS.VOB at 0x00000132
libdvdread: Elapsed time 0
libdvdread: Get key for /VIDEO_TS/VTS_01_1.VOB at 0x0001cf76
libdvdread: Elapsed time 0
libdvdread: Get key for /VIDEO_TS/VTS_02_0.VOB at 0x0001f92c
libdvdread: Elapsed time 0
libdvdread: Get key for /VIDEO_TS/VTS_02_1.VOB at 0x0001f9e6
libdvdread: Elapsed time 0
libdvdread: Get key for /VIDEO_TS/VTS_03_1.VOB at 0x0026d6d8
libdvdread: Elapsed time 0
libdvdread: Get key for /VIDEO_TS/VTS_04_1.VOB at 0x002e9dab
libdvdread: Elapsed time 0
libdvdread: Get key for /VIDEO_TS/VTS_05_1.VOB at 0x0033aa5f
libdvdread: Elapsed time 0
libdvdread: Found 5 VTS's
libdvdread: Elapsed time 0
audio stream: 0 format: ac3 (stereo) language: en aid: 128.
number of audio channels on disk: 1.
subtitle ( sid ): 0 language: de
number of subtitles on disk: 1
dump: 1038364672 bytes written (~99.9%)
dump: 1039427584 bytes written to '/home/trefix/Bureau/ARCHIVAGE_DVD/ZAUBERFLOETE_DVD1-UUID="431a548300000000"/6-ZAUBERFLOETE_DVD1.vob'.
Core dumped ;)
Restoring DVD speed... successful

Exiting... (End of file)
ffmpeg version 4.1.4-1~deb10u1 Copyright (c) 2000-2019 the FFmpeg developers
  built with gcc 8 (Debian 8.3.0-6)
  configuration: --prefix=/usr --extra-version='1~deb10u1' --toolchain=hardened --libdir=/usr/lib/x86_64-linux-gnu --incdir=/usr/include/x86_64-linux-gnu --arch=amd64 --enable-gpl --disable-stripping --enable-avresample --disable-filter=resample --enable-avisynth --enable-gnutls --enable-ladspa --enable-libaom --enable-libass --enable-libbluray --enable-libbs2b --enable-libcaca --enable-libcdio --enable-libcodec2 --enable-libflite --enable-libfontconfig --enable-libfreetype --enable-libfribidi --enable-libgme --enable-libgsm --enable-libjack --enable-libmp3lame --enable-libmysofa --enable-libopenjpeg --enable-libopenmpt --enable-libopus --enable-libpulse --enable-librsvg --enable-librubberband --enable-libshine --enable-libsnappy --enable-libsoxr --enable-libspeex --enable-libssh --enable-libtheora --enable-libtwolame --enable-libvidstab --enable-libvorbis --enable-libvpx --enable-libwavpack --enable-libwebp --enable-libx265 --enable-libxml2 --enable-libxvid --enable-libzmq --enable-libzvbi --enable-lv2 --enable-omx --enable-openal --enable-opengl --enable-sdl2 --enable-libdc1394 --enable-libdrm --enable-libiec61883 --enable-chromaprint --enable-frei0r --enable-libx264 --enable-shared
  libavutil      56. 22.100 / 56. 22.100
  libavcodec     58. 35.100 / 58. 35.100
  libavformat    58. 20.100 / 58. 20.100
  libavdevice    58.  5.100 / 58.  5.100
  libavfilter     7. 40.101 /  7. 40.101
  libavresample   4.  0.  0 /  4.  0.  0
  libswscale      5.  3.100 /  5.  3.100
  libswresample   3.  3.100 /  3.  3.100
  libpostproc    55.  3.100 / 55.  3.100
[mpeg @ 0x5568b66a5500] max_analyze_duration 1000000000 reached at 1000032367 microseconds st:0
Input #0, mpeg, from '/home/trefix/Bureau/ARCHIVAGE_DVD/ZAUBERFLOETE_DVD1-UUID="431a548300000000"/6-ZAUBERFLOETE_DVD1.vob':
  Duration: 00:00:06.54, start: 0.280633, bitrate: 1271496 kb/s
    Stream #0:0[0x1e0]: Video: mpeg2video (Main), 1 reference frame, yuv420p(tv, top first, left), 720x480 [SAR 32:27 DAR 16:9], 29.97 fps, 29.97 tbr, 90k tbn, 59.94 tbc
    Stream #0:1[0x80]: Audio: ac3, 48000 Hz, stereo, fltp, 192 kb/s
    Stream #0:2[0x20]: Subtitle: dvd_subtitle
[mpeg @ 0x5568b66a5500] Invalid stream specifier: 0-map.
[mpeg @ 0x5568b66a5500] Invalid stream specifier: i:0-map.######################
[mpeg @ 0x5568b66a5500] Invalid stream specifier: 0-map.########################
[mpeg @ 0x5568b66a5500] Invalid stream specifier: i:0-map.######################
[mpeg @ 0x5568b66a5500] Invalid stream specifier: 0-map.########################
[mpeg @ 0x5568b66a5500] Invalid stream specifier: i:0-map.######################
Stream map 'i:0-map' matches no streams.########################################
To ignore this, add a trailing '?' to the map.##################################
[AVIOContext @ 0x5568b66ae700] Statistics: 1003770000 bytes read, 3 seeks#######
Encodage sur VOB avec AC3 ... OK################################################
mkvmerge v31.0.0 ('Dolores In A Shoestand') 64-bit
Erreur : Le fichier « /home/trefix/Bureau/ARCHIVAGE_DVD/ZAUBERFLOETE_DVD1-UUID="431a548300000000"/6-ZAUBERFLOETE_DVD1.mkv » ne peut pas être ouvert en lecture : open file error.
mv: impossible d'évaluer '/home/trefix/Bureau/ARCHIVAGE_DVD/ZAUBERFLOETE_DVD1-UUID="431a548300000000"/6-ZAUBERFLOETE_DVD1-[OUT_CHAPTERS].mkv': Aucun fichier ou dossier de ce type
MPlayer 1.3.0 (Debian), built with gcc-8 (C) 2000-2016 MPlayer Team
Can't open joystick device /dev/input/js0: No such file or directory
Can't init input joystick
do_connect: could not connect to socket
connect: No such file or directory
Failed to open LIRC support. You will not be able to use your remote control.

Playing dvd://7.
Limiting DVD speed to 16200KB/s... successful
There are 8 titles on this DVD.
There are 1 angles in this DVD title.

libdvdread: Attempting to retrieve all CSS keys
libdvdread: This can take a _long_ time, please be patient

libdvdread: Get key for /VIDEO_TS/VIDEO_TS.VOB at 0x00000132
libdvdread: Elapsed time 0
libdvdread: Get key for /VIDEO_TS/VTS_01_1.VOB at 0x0001cf76
libdvdread: Elapsed time 0
libdvdread: Get key for /VIDEO_TS/VTS_02_0.VOB at 0x0001f92c
libdvdread: Elapsed time 0
libdvdread: Get key for /VIDEO_TS/VTS_02_1.VOB at 0x0001f9e6
libdvdread: Elapsed time 0
libdvdread: Get key for /VIDEO_TS/VTS_03_1.VOB at 0x0026d6d8
libdvdread: Elapsed time 0
libdvdread: Get key for /VIDEO_TS/VTS_04_1.VOB at 0x002e9dab
libdvdread: Elapsed time 0
libdvdread: Get key for /VIDEO_TS/VTS_05_1.VOB at 0x0033aa5f
libdvdread: Elapsed time 0
libdvdread: Found 5 VTS's
libdvdread: Elapsed time 0
audio stream: 0 format: ac3 (stereo) language: en aid: 128.
number of audio channels on disk: 1.
subtitle ( sid ): 0 language: de
number of subtitles on disk: 1
dump: 673964032 bytes written (~99.9%)
dump: 674924544 bytes written to '/home/trefix/Bureau/ARCHIVAGE_DVD/ZAUBERFLOETE_DVD1-UUID="431a548300000000"/7-ZAUBERFLOETE_DVD1.vob'.
Core dumped ;)
Restoring DVD speed... successful

Exiting... (End of file)
ffmpeg version 4.1.4-1~deb10u1 Copyright (c) 2000-2019 the FFmpeg developers
  built with gcc 8 (Debian 8.3.0-6)
  configuration: --prefix=/usr --extra-version='1~deb10u1' --toolchain=hardened --libdir=/usr/lib/x86_64-linux-gnu --incdir=/usr/include/x86_64-linux-gnu --arch=amd64 --enable-gpl --disable-stripping --enable-avresample --disable-filter=resample --enable-avisynth --enable-gnutls --enable-ladspa --enable-libaom --enable-libass --enable-libbluray --enable-libbs2b --enable-libcaca --enable-libcdio --enable-libcodec2 --enable-libflite --enable-libfontconfig --enable-libfreetype --enable-libfribidi --enable-libgme --enable-libgsm --enable-libjack --enable-libmp3lame --enable-libmysofa --enable-libopenjpeg --enable-libopenmpt --enable-libopus --enable-libpulse --enable-librsvg --enable-librubberband --enable-libshine --enable-libsnappy --enable-libsoxr --enable-libspeex --enable-libssh --enable-libtheora --enable-libtwolame --enable-libvidstab --enable-libvorbis --enable-libvpx --enable-libwavpack --enable-libwebp --enable-libx265 --enable-libxml2 --enable-libxvid --enable-libzmq --enable-libzvbi --enable-lv2 --enable-omx --enable-openal --enable-opengl --enable-sdl2 --enable-libdc1394 --enable-libdrm --enable-libiec61883 --enable-chromaprint --enable-frei0r --enable-libx264 --enable-shared
  libavutil      56. 22.100 / 56. 22.100
  libavcodec     58. 35.100 / 58. 35.100
  libavformat    58. 20.100 / 58. 20.100
  libavdevice    58.  5.100 / 58.  5.100
  libavfilter     7. 40.101 /  7. 40.101
  libavresample   4.  0.  0 /  4.  0.  0
  libswscale      5.  3.100 /  5.  3.100
  libswresample   3.  3.100 /  3.  3.100
  libpostproc    55.  3.100 / 55.  3.100
Input #0, mpeg, from '/home/trefix/Bureau/ARCHIVAGE_DVD/ZAUBERFLOETE_DVD1-UUID="431a548300000000"/7-ZAUBERFLOETE_DVD1.vob':
  Duration: 00:00:06.54, start: 0.280633, bitrate: 825612 kb/s
    Stream #0:0[0x1e0]: Video: mpeg2video (Main), 1 reference frame, yuv420p(tv, top first, left), 720x480 [SAR 32:27 DAR 16:9], 8000 kb/s, 29.97 fps, 29.97 tbr, 90k tbn, 59.94 tbc
    Stream #0:1[0x20]: Subtitle: dvd_subtitle
    Stream #0:2[0x80]: Audio: ac3, 48000 Hz, stereo, fltp, 192 kb/s
[mpeg @ 0x55cdf2195500] Invalid stream specifier: 0-map.
[mpeg @ 0x55cdf2195500] Invalid stream specifier: i:0-map.######################
[mpeg @ 0x55cdf2195500] Invalid stream specifier: 0-map.########################
[mpeg @ 0x55cdf2195500] Invalid stream specifier: i:0-map.######################
[mpeg @ 0x55cdf2195500] Invalid stream specifier: 0-map.########################
[mpeg @ 0x55cdf2195500] Invalid stream specifier: i:0-map.######################
Stream map 'i:0-map' matches no streams.########################################
To ignore this, add a trailing '?' to the map.##################################
[AVIOContext @ 0x55cdf219e700] Statistics: 675436688 bytes read, 3 seeks########
Encodage sur VOB avec AC3 ... OK################################################
mkvmerge v31.0.0 ('Dolores In A Shoestand') 64-bit
Erreur : Le fichier « /home/trefix/Bureau/ARCHIVAGE_DVD/ZAUBERFLOETE_DVD1-UUID="431a548300000000"/7-ZAUBERFLOETE_DVD1.mkv » ne peut pas être ouvert en lecture : open file error.
mv: impossible d'évaluer '/home/trefix/Bureau/ARCHIVAGE_DVD/ZAUBERFLOETE_DVD1-UUID="431a548300000000"/7-ZAUBERFLOETE_DVD1-[OUT_CHAPTERS].mkv': Aucun fichier ou dossier de ce type
MPlayer 1.3.0 (Debian), built with gcc-8 (C) 2000-2016 MPlayer Team
Can't open joystick device /dev/input/js0: No such file or directory
Can't init input joystick
do_connect: could not connect to socket
connect: No such file or directory
Failed to open LIRC support. You will not be able to use your remote control.

Playing dvd://8.
Limiting DVD speed to 16200KB/s... successful
There are 8 titles on this DVD.
There are 1 angles in this DVD title.

libdvdread: Attempting to retrieve all CSS keys
libdvdread: This can take a _long_ time, please be patient

libdvdread: Get key for /VIDEO_TS/VIDEO_TS.VOB at 0x00000132
libdvdread: Elapsed time 0
libdvdread: Get key for /VIDEO_TS/VTS_01_1.VOB at 0x0001cf76
libdvdread: Elapsed time 0
libdvdread: Get key for /VIDEO_TS/VTS_02_0.VOB at 0x0001f92c
libdvdread: Elapsed time 0
libdvdread: Get key for /VIDEO_TS/VTS_02_1.VOB at 0x0001f9e6
libdvdread: Elapsed time 0
libdvdread: Get key for /VIDEO_TS/VTS_03_1.VOB at 0x0026d6d8
libdvdread: Elapsed time 0
libdvdread: Get key for /VIDEO_TS/VTS_04_1.VOB at 0x002e9dab
libdvdread: Elapsed time 0
libdvdread: Get key for /VIDEO_TS/VTS_05_1.VOB at 0x0033aa5f
libdvdread: Elapsed time 0
libdvdread: Found 5 VTS's
libdvdread: Elapsed time 0
audio stream: 0 format: ac3 (stereo) language: en aid: 128.
number of audio channels on disk: 1.
subtitle ( sid ): 0 language: de
number of subtitles on disk: 1
dump: 896458752 bytes written (~99.5%)
dump: 900528128 bytes written to '/home/trefix/Bureau/ARCHIVAGE_DVD/ZAUBERFLOETE_DVD1-UUID="431a548300000000"/8-ZAUBERFLOETE_DVD1.vob'.
Core dumped ;)
Restoring DVD speed... successful

Exiting... (End of file)
ffmpeg version 4.1.4-1~deb10u1 Copyright (c) 2000-2019 the FFmpeg developers
  built with gcc 8 (Debian 8.3.0-6)
  configuration: --prefix=/usr --extra-version='1~deb10u1' --toolchain=hardened --libdir=/usr/lib/x86_64-linux-gnu --incdir=/usr/include/x86_64-linux-gnu --arch=amd64 --enable-gpl --disable-stripping --enable-avresample --disable-filter=resample --enable-avisynth --enable-gnutls --enable-ladspa --enable-libaom --enable-libass --enable-libbluray --enable-libbs2b --enable-libcaca --enable-libcdio --enable-libcodec2 --enable-libflite --enable-libfontconfig --enable-libfreetype --enable-libfribidi --enable-libgme --enable-libgsm --enable-libjack --enable-libmp3lame --enable-libmysofa --enable-libopenjpeg --enable-libopenmpt --enable-libopus --enable-libpulse --enable-librsvg --enable-librubberband --enable-libshine --enable-libsnappy --enable-libsoxr --enable-libspeex --enable-libssh --enable-libtheora --enable-libtwolame --enable-libvidstab --enable-libvorbis --enable-libvpx --enable-libwavpack --enable-libwebp --enable-libx265 --enable-libxml2 --enable-libxvid --enable-libzmq --enable-libzvbi --enable-lv2 --enable-omx --enable-openal --enable-opengl --enable-sdl2 --enable-libdc1394 --enable-libdrm --enable-libiec61883 --enable-chromaprint --enable-frei0r --enable-libx264 --enable-shared
  libavutil      56. 22.100 / 56. 22.100
  libavcodec     58. 35.100 / 58. 35.100
  libavformat    58. 20.100 / 58. 20.100
  libavdevice    58.  5.100 / 58.  5.100
  libavfilter     7. 40.101 /  7. 40.101
  libavresample   4.  0.  0 /  4.  0.  0
  libswscale      5.  3.100 /  5.  3.100
  libswresample   3.  3.100 /  3.  3.100
  libpostproc    55.  3.100 / 55.  3.100
Input #0, mpeg, from '/home/trefix/Bureau/ARCHIVAGE_DVD/ZAUBERFLOETE_DVD1-UUID="431a548300000000"/8-ZAUBERFLOETE_DVD1.vob':
  Duration: 00:00:06.54, start: 0.280633, bitrate: 1101585 kb/s
    Stream #0:0[0x1e0]: Video: mpeg2video (Main), 1 reference frame, yuv420p(tv, top first, left), 720x480 [SAR 32:27 DAR 16:9], 8000 kb/s, 29.97 fps, 29.97 tbr, 90k tbn, 59.94 tbc
    Stream #0:1[0x80]: Audio: ac3, 48000 Hz, stereo, fltp, 192 kb/s
    Stream #0:2[0x20]: Subtitle: dvd_subtitle
[mpeg @ 0x564e66919500] Invalid stream specifier: 0-map.
[mpeg @ 0x564e66919500] Invalid stream specifier: i:0-map.######################
[mpeg @ 0x564e66919500] Invalid stream specifier: 0-map.########################
[mpeg @ 0x564e66919500] Invalid stream specifier: i:0-map.######################
[mpeg @ 0x564e66919500] Invalid stream specifier: 0-map.########################
[mpeg @ 0x564e66919500] Invalid stream specifier: i:0-map.######################
Stream map 'i:0-map' matches no streams.########################################
To ignore this, add a trailing '?' to the map.##################################
[AVIOContext @ 0x564e66922700] Statistics: 901040272 bytes read, 3 seeks########
Encodage sur VOB avec AC3 ... OK################################################
mkvmerge v31.0.0 ('Dolores In A Shoestand') 64-bit
Erreur : Le fichier « /home/trefix/Bureau/ARCHIVAGE_DVD/ZAUBERFLOETE_DVD1-UUID="431a548300000000"/8-ZAUBERFLOETE_DVD1.mkv » ne peut pas être ouvert en lecture : open file error.
mv: impossible d'évaluer '/home/trefix/Bureau/ARCHIVAGE_DVD/ZAUBERFLOETE_DVD1-UUID="431a548300000000"/8-ZAUBERFLOETE_DVD1-[OUT_CHAPTERS].mkv': Aucun fichier ou dossier de ce type
trefix@neness:~$



Bref... je vais tenter un truc sous W$ ce soir, sur l'ordi de ma chérie (je dois rendre ce DVD demain). Et je reste à bosser à côté de l'ordi. une bonne partie de la soirée.

@+

Hors ligne

#30 17-11-2019 19:10:31

golgot200
Membre
Distrib. : Archlinux 2018-02-03
Noyau : 5.9.4-arch1-1
(G)UI : Mate (Strict Minimum)
Inscription : 05-08-2007

Re : Ripper DVD

Si quelqu'un passe par là, pour les map, un :

-map "0:a?"



avec ffmpeg à quelle fonction ?

Je ne comprend pas cette option mais ça m'enlève une épine du pied sur des dvds avec des streams audios bizarres.

Dernière modification par golgot200 (17-11-2019 19:11:24)

Hors ligne

#31 17-11-2019 19:14:24

golgot200
Membre
Distrib. : Archlinux 2018-02-03
Noyau : 5.9.4-arch1-1
(G)UI : Mate (Strict Minimum)
Inscription : 05-08-2007

Re : Ripper DVD

@Trefix

tu n'as aucun fichier mkv en final ?

Dernière modification par golgot200 (17-11-2019 19:16:25)

Hors ligne

#32 17-11-2019 19:19:51

Trefix
Membre
Lieu : 48
Distrib. : buster 10.4 + bpo
Noyau : linux 4.19.0-9-amd64
(G)UI : Xfce4 4.12.5
Inscription : 15-02-2015

Re : Ripper DVD

Non.

Il y a le dossier sur le bureau, dedans le dossier zuaberfloete, dedans un dossier WAVE et 4 fichiers de langue mais pas de *.mkv

Hors ligne

#33 17-11-2019 19:32:31

golgot200
Membre
Distrib. : Archlinux 2018-02-03
Noyau : 5.9.4-arch1-1
(G)UI : Mate (Strict Minimum)
Inscription : 05-08-2007

Re : Ripper DVD

Je vais essayer de te faire un truc allégé vite fait pour essayé de te dépanner, mais je ne te promet rien ....

Déjà je vois que tu as des bandes sons LPCM.

Dernière modification par golgot200 (17-11-2019 19:34:04)

Hors ligne

#34 17-11-2019 19:36:35

Trefix
Membre
Lieu : 48
Distrib. : buster 10.4 + bpo
Noyau : linux 4.19.0-9-amd64
(G)UI : Xfce4 4.12.5
Inscription : 15-02-2015

Re : Ripper DVD

T'emm... pas ce soir, j'ai lancé VLC pour voir et il a l'air de vouloir me faire un mp4 en mode "dvd simple". J'espère que ce sera utilisable...

Hors ligne

#35 17-11-2019 19:56:06

golgot200
Membre
Distrib. : Archlinux 2018-02-03
Noyau : 5.9.4-arch1-1
(G)UI : Mate (Strict Minimum)
Inscription : 05-08-2007

Re : Ripper DVD

Voilà vite fait :


#!/bin/bash
## CHANNELS_0=$(ffmpeg -i "$FOLDER/$i-$TITLE.mkv" -ss 00 -t 10 -f null - 2>&1 | grep -c 'Guessed Channel Layout for Input Stream')

PATH=$PATH:/sbin:/usr/sbin


declare -a MPLAYER_IDENTIFY
declare -a LSDVD_X

mplayer_identify () {
    if [[  "${#MPLAYER_IDENTIFY[@]}" -eq 0 ]]; then
        mapfile MPLAYER_IDENTIFY < \
                <(mplayer -noconfig all -nocache -vo null -ao null -frames 0 \
                          -identify -dvd-device "$DEVICE" dvd://"$i" 2>/dev/null)
    fi
    echo -n "${MPLAYER_IDENTIFY[@]}"
}



lsdvd_x () {
    if [[ "${#LSDVD_X[@]}" -eq 0  ]]; then
        mapfile LSDVD_X < <(lsdvd -x "$DEVICE" -t "$i" 2> /dev/null)
    fi
    echo -n "${LSDVD_X[@]}"
}


extract_all_audios_ac3 () {
    ORDER=0
    local output="$2"
    for n in $AIDS_AC3; do
        mplayer -noconfig all -nocache -identify -dvd-device "$DEVICE" dvdnav://$1 \
                 -ni -aid $n \
                 -dumpaudio -dumpfile "$FOLDER/$((ORDER++))-$n-$TITLE.ac3"
    done            
           

}



## Condition : un seul dvd-vidéo.
mapfile -t  BLKID < <(blkid /dev/sr* |sed -E 's/^([^:]+): .*/\1/')

if [[ "${#BLKID[@]}" -eq  "0" ]] ; then
    echo "Aucun DVD trouvé: abandon"
    exit 0
fi

idx=0
for dev in "${BLKID[@]}"; do
    mnt=$(mount |sed -n -E "s/^${dev//\//\\\/} on (.*) type .*\$/\\1/p")
    [[ -z "$mnt" ]] && continue
    if [[ -f "$mnt/VIDEO_TS/VIDEO_TS.IFO" ]]; then
        DEVICES[$idx]="$dev"
        MOUNT_POINTS[$idx]="$mnt"
        idx=$((idx+1))
    fi
done

if [[ "${#DEVICES[@]}" -eq 0 ]]; then
    echo "Aucun dvd vidéo monté : Abandon"
    exit 0
elif [[ "${#DEVICES[@]}" -gt 1 ]];  then
    echo "Il y a plus d'un dvd video détecté : Abandon"
    exit 0
fi

DEVICE=${DEVICES[0]}
MOUNT_POINT=${MOUNT_POINTS[0]}

## Label du dvd-vidéo & nombre total de titres sur celui-ci.
idx=0
TITLE_COUNT=0
regexp='^Title: '
while read -r line; do
    idx=$((idx+1))
    if [[ "$idx" -eq 1 ]]; then
        TITLE=${line#*: }
    elif [[ "$line" =~ $regexp ]]; then
        TITLE_COUNT=$((TITLE_COUNT+1))
    fi
done < <(lsdvd "$DEVICE" 2>/dev/null)

unset regexp dev mnt idx BLKID DEVICES MOUNT_POINTS

if [[ -z "$TITLE" ]]; then
    echo "Pas de dvd vidéo trouvé : abandon"
    exit 0
fi

echo "Proceed..."

UUID=$(blkid /dev/sr* | grep "UUID=" | awk '{print$2}')
DIR=$(xdg-user-dir DESKTOP)
FOLDER="$DIR/ARCHIVAGE_DVD/$TITLE-$UUID"

if [[ ! -d "$FOLDER" ]]; then
    echo "$FOLDER n'existe pas !"
    echo "Création Du Dossier $FOLDER"
    mkdir -p "$FOLDER"
fi

for (( i=1; i<=TITLE_COUNT; i++ ))
do
    MPLAYER_IDENTIFY=()
    LSDVD_X=()
## Titres d'une durée de plus de .... secondes [ ici, 0 seconde]
    LENGTH=$(mplayer_identify "$i" |sed -E -n 's/^.*ID_LENGTH=([0-9]+).*$/\1/p')
    LIMIT=120
    [[ "$LENGTH" -le "$LIMIT" ]] && continue



    ALLSHOW_TAG=$(mplayer -vo null -ao null -frames 0 -identify dvd://"$i" -dvd-device "$DEVICE"  2>/dev/null | \
              awk '/audio stream:/  {printf "-metadata:s:a:"$3" language="$8" -metadata:s:a:"$3" title="$5$6" "}')
             
    MAP_ID_STREAMS=$(lsdvd -a "$DEVICE" -t "$i" 2> /dev/null | \
             grep "Language:" | sed -n -e "s/.*\(0x\)/\1/p" | sed -e 's/c/1c/g' | \
             awk '/0x/{gsub (/^/,"-map i:")}1')
             
       
    MAP_ID_STREAMS_LPCM=$(lsdvd_x "$i" | sed -n -E '/lpcm/s/.*(0x)/\1/p' | \
                              awk '{ gsub(/c/, "1c") }
                                   /0x/ { gsub (/^/,"-map i:")}
                                   { print $0 }'
)              
                                       
    COUNT_LPCM=$(lsdvd_x "$i" |grep -c 'lpcm')
   

    AIDS_LPCM=$(lsdvd_x "$i" | awk '/lpcm|id:/ { print $22 }')
   
   
## Dump du dvd
    mplayer -noconfig all -nocache -dvd-device "$DEVICE" -dvd-speed 12 dvd://"$i" \
            -dumpstream -dumpfile "$FOLDER/$i-$TITLE.vob"
           
       
   
   
         
    AIDS_AC3=$(lsdvd -a "$DEVICE" -t "$i" 2> /dev/null | grep "Audio:" | grep -E "mpeg1,|ac3,|dts," | awk '{print$21}')
                 

   




## Films encodage
    if [[ "$COUNT_LPCM" -eq "0" ]];

    then          
           
## CPU                  
        ffmpeg -analyzeduration 1000M -probesize 1000M -vsync passthrough -i "$FOLDER/$i-$TITLE.vob" \
            -map 0:v -metadata title="$TITLE" \
            -c:v libx264 -b:v 4000k -maxrate 4000k -bufsize 8000k \
            -loglevel repeat+verbose -movflags faststart \
            -x264opts 'keyint=300:min-keyint=25:8x8dct:sliced-threads=0' \
            -map "0:a?" -c:a copy -movflags +faststart -max_muxing_queue_size 9999 \
            -deblock 1:1 -flags +loop -qcomp 0.60 -qblur 0.5 -coder 1 -me_range 6 -sc_threshold 42 -bf 10 -trellis 2 -mbtree 1 -qmin 0 -qmax 52 \
            -preset veryfast -y "$FOLDER/$i-$TITLE.mkv"
           
            rm -f "$FOLDER/$i-$TITLE.vob"
           
           
           
            echo "Encodage sur VOB avec AC3 ... OK"
            sleep 3
           
            dvdxchap -t  "$i" "$DEVICE" > "$FOLDER/$i-$TITLE-CHAPTERS.txt"
           
            mkvmerge "$FOLDER/$i-$TITLE.mkv" --chapters "$FOLDER/$i-$TITLE-CHAPTERS.txt" \
             -o "$FOLDER/$i-$TITLE-[OUT_CHAPTERS].mkv"
           
            rm -f "$FOLDER/$i-$TITLE.mkv"
            rm -f "$FOLDER/$i-$TITLE-CHAPTERS.txt"
                           
           
           
fi            
           


## Concerts encodage
    if [[ "$COUNT_LPCM" -ge "1" ]];

    then
   

   
## CPU    
        ffmpeg -analyzeduration 1000M -probesize 1000M -vsync passthrough -i "$FOLDER/$i-$TITLE.vob" \
            -map 0:v -metadata title="$TITLE" \
            -c:v libx264 -b:v 4000k -maxrate 4000k -bufsize 8000k \
            -loglevel repeat+verbose -movflags faststart \
            -x264opts 'keyint=300:min-keyint=25:8x8dct:sliced-threads=0' \
            -map "0:a?" -acodec pcm_s16be -movflags +faststart -max_muxing_queue_size 9999 \
            -deblock 1:1 -flags +loop -qcomp 0.60 -qblur 0.5 -coder 1 -me_range 6 -sc_threshold 42 -bf 10 -trellis 2 -mbtree 1 -qmin 0 -qmax 52 \
            -preset slow -y "$FOLDER/$i-$TITLE.mkv"
           
            rm -f "$FOLDER/$i-$TITLE.vob"
                       
            dvdxchap -t  "$i" "$DEVICE" > "$FOLDER/$i-$TITLE-CHAPTERS.txt"
           
            mkvmerge "$FOLDER/$i-$TITLE.mkv" --chapters "$FOLDER/$i-$TITLE-CHAPTERS.txt" \
             -o "$FOLDER/$i-$TITLE-[OUT_CHAPTERS].mkv"            
           
            rm -f "$FOLDER/$i-$TITLE.mkv"
            rm -f "$FOLDER/$i-$TITLE-CHAPTERS.txt"
           




                           
fi


 

done




 

Dernière modification par golgot200 (18-11-2019 23:01:28)

Hors ligne

#36 17-11-2019 20:19:12

deuchdeb
Moderato ma non troppo
Lieu : Ca bouge Ca bouge!!!
Distrib. : Debian 10 Buster KDE DFlinux et LinuxMintCinnamon
Noyau : Noyau stable
(G)UI : KDE Plasma 5.14, Xfce et Cinnamon
Inscription : 13-01-2010
Site Web

Re : Ripper DVD

Il y a aussi vobcopy. Je l'ai utiliser une ou deux fois pour copier des dvd de la médiathèque  sur mon disque dur.

Apt install vobcopy



vobcopy -l




-l : Écrit les données dans un seul fichier.
    -m : Effectue une copie de tout le DVD sur le disque dur.
    -f : Force la copie vers le répertoire spécifié même si VobCopy pense qu’il n’y a pas assez d’espace libre.
    -i : Indique à VobCopy le chemin d’accès au lecteur de DVD monté.
    -o : Spécifie le répertoire de sortie.
    -h : Affiche l’aide.
    -x : Écrase tout les fichiers existants.
    -I : Affiche les informations sur les titres, chapitres et angles du DVD.
    -n : Indique le titre à extraire.


http://www.planet-libre.org/index.php?post_id=9055

Ensuite on peut le mettre en mpg.


ffmpeg -i nomfichier.vob -vcodec copy -acodec copy nomfichier.mpg



http://meta.libera.cc/2012/07/copie-lid … -sous.html


Une fleur, c'est magique non? smile
Association Debian Facile

Hors ligne

#37 17-11-2019 21:09:04

Trefix
Membre
Lieu : 48
Distrib. : buster 10.4 + bpo
Noyau : linux 4.19.0-9-amd64
(G)UI : Xfce4 4.12.5
Inscription : 15-02-2015

Re : Ripper DVD

Merci à vous deux, mais pour ce soir je décroche. J'ai encore plein d'autres choses à faire pour être prêt à aller bosser demain matin sad

J'y reviens mercredi, maintenant...

Hors ligne

#38 17-11-2019 22:49:45

golgot200
Membre
Distrib. : Archlinux 2018-02-03
Noyau : 5.9.4-arch1-1
(G)UI : Mate (Strict Minimum)
Inscription : 05-08-2007

Re : Ripper DVD

Ton DVD à peut-être un protection. C'est tout à fait possible.

Hors ligne

#39 17-11-2019 23:20:41

golgot200
Membre
Distrib. : Archlinux 2018-02-03
Noyau : 5.9.4-arch1-1
(G)UI : Mate (Strict Minimum)
Inscription : 05-08-2007

Re : Ripper DVD

Tiens un script vite assemblé avec Handbrake.

apt install handbrake




ça sera plus simple au cas où il y ai une protection.



#!/bin/bash

## Golgot200
## CHANNELS_0=$(ffmpeg -i "$FOLDER/$i-$TITLE.mkv" -ss 00 -t 10 -f null - 2>&1 | grep -c 'Guessed Channel Layout for Input Stream')

PATH=$PATH:/sbin:/usr/sbin

## Condition : un seul dvd-vidéo.
mapfile -t  BLKID < <(blkid /dev/sr* |sed -E 's/^([^:]+): .*/\1/')

if [[ "${#BLKID[@]}" -eq  "0" ]] ; then
    echo "Aucun DVD trouvé: abandon"
    exit 0
fi

idx=0
for dev in "${BLKID[@]}"; do
    mnt=$(mount |sed -n -E "s/^${dev//\//\\\/} on (.*) type .*\$/\\1/p")
    [[ -z "$mnt" ]] && continue
    if [[ -f "$mnt/VIDEO_TS/VIDEO_TS.IFO" ]]; then
        DEVICES[$idx]="$dev"
        MOUNT_POINTS[$idx]="$mnt"
        idx=$((idx+1))
    fi
done

if [[ "${#DEVICES[@]}" -eq 0 ]]; then
    echo "Aucun dvd vidéo monté : Abandon"
    exit 0
elif [[ "${#DEVICES[@]}" -gt 1 ]];  then
    echo "Il y a plus d'un dvd video détecté : Abandon"
    exit 0
fi

DEVICE=${DEVICES[0]}
MOUNT_POINT=${MOUNT_POINTS[0]}

## Label du dvd-vidéo & nombre total de titres sur celui-ci.
idx=0
TITLE_COUNT=0
regexp='^Title: '
while read -r line; do
    idx=$((idx+1))
    if [[ "$idx" -eq 1 ]]; then
        TITLE=${line#*: }
    elif [[ "$line" =~ $regexp ]]; then
        TITLE_COUNT=$((TITLE_COUNT+1))
    fi
done < <(lsdvd "$DEVICE" 2>/dev/null)

unset regexp dev mnt idx BLKID DEVICES MOUNT_POINTS

if [[ -z "$TITLE" ]]; then
    echo "Pas de dvd vidéo trouvé : abandon"
    exit 0
fi

echo "Proceed..."

UUID=$(blkid /dev/sr* | grep "UUID=" | awk '{print$2}')
DIR=$(xdg-user-dir DESKTOP)
FOLDER="$DIR/ARCHIVAGE_DVD/$TITLE-$UUID"

if [[ ! -d "$FOLDER" ]]; then
    echo "$FOLDER n'existe pas !"
    echo "Création Du Dossier $FOLDER"
    mkdir -p "$FOLDER"
fi

for (( i=1; i<=TITLE_COUNT; i++ ))
do


## Titres d'une durée de plus de .... secondes [ ici, 0 seconde]
               
    LENGTH=$(mplayer -noconfig all -nocache -vo null -ao null -frames 0 -identify -dvd-device "$DEVICE" dvdnav://"$i" 2>/dev/null | \
              sed -E -n 's/^.*ID_LENGTH=([0-9]+).*$/\1/p')
           
    LIMIT=0
    [[ "$LENGTH" -le "$LIMIT" ]] && continue





HandBrakeCLI --no-dvdnav  \
--input $DEVICE --title $i \
--all-audio --audio-lang-list "fr,en" --all-subtitles --subtitle-lang-list fr \
-e x264 --encoder-preset slow -b 2000 \
-x ref=3:mixed-refs:bframes=6:b-pyramid=1:weightb=1:analyse=all:8x8dct=1:subme=6:me=umh:merange=24:filter=-2,-2:ref=6:mixed-refs=1:trellis=1:no-fast-pskip=1:no-dct-decimate=1 \
--crop 0:0:0:0 \
--aencoder copy \
--output "$FOLDER/0$i - $TITLE.mkv"



done

 



Prend tout les titres sur le DVD (français et anglais) ainsi que tout les soustitres français.

Dernière modification par golgot200 (18-11-2019 23:03:02)

Hors ligne

#40 29-12-2019 10:38:29

Jean-Pierre Pinson
Membre
Lieu : Orléans
Distrib. : Trisquel 8 64bits Ordi.: Thinkpad T400
Noyau : 4.15.0-55-generic x86_64
(G)UI : xfce
Inscription : 04-03-2017

Re : Ripper DVD

Merci deuchdeb smile

Trisquel 8 64bits
Bureau : xfce
Ordinateur : Thinkpad T400 libreboot

Hors ligne

#41 29-12-2019 11:58:45

golgot200
Membre
Distrib. : Archlinux 2018-02-03
Noyau : 5.9.4-arch1-1
(G)UI : Mate (Strict Minimum)
Inscription : 05-08-2007

Re : Ripper DVD

deuchdeb a écrit :



Ensuite on peut le mettre en mpg.


ffmpeg -i nomfichier.vob -vcodec copy -acodec copy nomfichier.mpg



...



Si le vob comporte plusieurs pistes audios, la commande risque de poser problème non ? smile

Hors ligne

#42 29-12-2019 13:14:03

smolski
quasi...modo
Lieu : AIN
Distrib. : backports (buster) 10
Noyau : Linux 4.19.0-8-amd64
(G)UI : gnome
Inscription : 21-10-2008

Re : Ripper DVD

pour l'instant, mes copies sont bien en fr.
Je teste un autre dvd... multilangue pour être sûr.
Je pense que les dvd français ont une piste audio en première ligne par défaut..?
roll

Edit : Sinon il semble y avoir l'option -m pour sélectionner la langue fr. smile

Dernière modification par smolski (29-12-2019 13:16:09)


"Théo et Adama te rappellent pourquoi Zyed et Bouna couraient…"
"L'utopie ne signifie pas l'irréalisable, mais l'irréalisée." - T Monod (source :  La zone de Siné)
"Je peux rire de tout mais pas avec n'importe qui." - P Desproges
"saque eud dun" (patois chtimi : fonce dedans)

Hors ligne

#43 29-12-2019 13:52:42

smolski
quasi...modo
Lieu : AIN
Distrib. : backports (buster) 10
Noyau : Linux 4.19.0-8-amd64
(G)UI : gnome
Inscription : 21-10-2008

Re : Ripper DVD

Alors, le -m te donne la copie entière du dvd, ensuite tu dois mettre le contenu du répertoire VIDEO_TS dans le répertoire de lecture créer manuellement et tu as les options de langue disponibles par le menu du dvd.
Il est probable que l'on doit pouvoir à ce stade de n'ouvrir qu'en fr ? smile

"Théo et Adama te rappellent pourquoi Zyed et Bouna couraient…"
"L'utopie ne signifie pas l'irréalisable, mais l'irréalisée." - T Monod (source :  La zone de Siné)
"Je peux rire de tout mais pas avec n'importe qui." - P Desproges
"saque eud dun" (patois chtimi : fonce dedans)

Hors ligne

#44 29-12-2019 14:37:42

golgot200
Membre
Distrib. : Archlinux 2018-02-03
Noyau : 5.9.4-arch1-1
(G)UI : Mate (Strict Minimum)
Inscription : 05-08-2007

Re : Ripper DVD

sur la commande ffmpeg, il faudrait utiliser :


-map 0:v
-map 0:a
 



smile

smolski a écrit :

...
Je teste un autre dvd... multilangue pour être sûr.



C'est fait pour ma part et je me retrouve, après la conversion (ffmpeg), avec une seule piste audio mais en anglais wink


smolski a écrit :

...
Je pense que les dvd français ont une piste audio en première ligne par défaut..?



Pas tout le temps wink

Dernière modification par golgot200 (29-12-2019 14:42:53)

Hors ligne

#45 29-12-2019 14:48:06

golgot200
Membre
Distrib. : Archlinux 2018-02-03
Noyau : 5.9.4-arch1-1
(G)UI : Mate (Strict Minimum)
Inscription : 05-08-2007

Re : Ripper DVD

deuchdeb avec vobcopy donne l'option -l ( un vob unique du film entier). Là, à mon avis "je ne peut pas tester", on perdrait toutes les infos des pistes audios et des soustitres présents dans celui-ci.

unknown
unknown
etc ..

Dernière modification par golgot200 (29-12-2019 14:50:34)

Hors ligne

#46 29-12-2019 16:41:37

smolski
quasi...modo
Lieu : AIN
Distrib. : backports (buster) 10
Noyau : Linux 4.19.0-8-amd64
(G)UI : gnome
Inscription : 21-10-2008

Re : Ripper DVD

Je suis en cours de teste...s je vous tiens au courant.

"Théo et Adama te rappellent pourquoi Zyed et Bouna couraient…"
"L'utopie ne signifie pas l'irréalisable, mais l'irréalisée." - T Monod (source :  La zone de Siné)
"Je peux rire de tout mais pas avec n'importe qui." - P Desproges
"saque eud dun" (patois chtimi : fonce dedans)

Hors ligne

#47 29-12-2019 18:26:40

golgot200
Membre
Distrib. : Archlinux 2018-02-03
Noyau : 5.9.4-arch1-1
(G)UI : Mate (Strict Minimum)
Inscription : 05-08-2007

Re : Ripper DVD

Je viens de découvrir qu'on peut en une commande (dumper/encoder/choisir sa langue) avec mencoder en une fois big_smile

Dernière modification par golgot200 (29-12-2019 18:29:35)

Hors ligne

#48 29-12-2019 20:10:58

smolski
quasi...modo
Lieu : AIN
Distrib. : backports (buster) 10
Noyau : Linux 4.19.0-8-amd64
(G)UI : gnome
Inscription : 21-10-2008

Re : Ripper DVD

Bon, c'est un peu galère avec un multi langues si la langue n'est pas d'office le fr. smile
J'ai bidouillé une combine via vokoscreen après la copie avec vobcopy.

J'vous dis pas... wink

"Théo et Adama te rappellent pourquoi Zyed et Bouna couraient…"
"L'utopie ne signifie pas l'irréalisable, mais l'irréalisée." - T Monod (source :  La zone de Siné)
"Je peux rire de tout mais pas avec n'importe qui." - P Desproges
"saque eud dun" (patois chtimi : fonce dedans)

Hors ligne

#49 30-12-2019 15:08:00

golgot200
Membre
Distrib. : Archlinux 2018-02-03
Noyau : 5.9.4-arch1-1
(G)UI : Mate (Strict Minimum)
Inscription : 05-08-2007

Re : Ripper DVD

@smolski

tout avec mencoder.

essaies ça pour voir ce que ça donne chez toi :

mencoder -dvd-device /dev/sr0 dvd://01 -ni -force-avi-aspect 16:9 -ovc copy -alang fr -oac pcm -channels 6 -srate 44100 -nosub -o OUTPUT.vob



dvd://01



en supposant que c'est le titre désiré. wink

-alang fr



prendra la première piste audio fr trouvée.
Je n'ai pas trouvé le moyen de les prendre toutes (si il y a)

-oac pcm


copy ne fonctionne pas chez moi (pour l'instant)

Dernière modification par golgot200 (30-12-2019 15:11:38)

Hors ligne

#50 30-12-2019 15:17:29

smolski
quasi...modo
Lieu : AIN
Distrib. : backports (buster) 10
Noyau : Linux 4.19.0-8-amd64
(G)UI : gnome
Inscription : 21-10-2008

Re : Ripper DVD

Merci golgot200, je teste bientôt et te fait le retour. smile
L'avantage de vobcopy est que tu as un fichier conséquent de plusieurs Go. wink

"Théo et Adama te rappellent pourquoi Zyed et Bouna couraient…"
"L'utopie ne signifie pas l'irréalisable, mais l'irréalisée." - T Monod (source :  La zone de Siné)
"Je peux rire de tout mais pas avec n'importe qui." - P Desproges
"saque eud dun" (patois chtimi : fonce dedans)

Hors ligne

Pied de page des forums