Debian Debian-France Debian-Facile Debian-fr.org Debian-fr.xyz Debian ? Communautés

Debian-facile

Bienvenue sur Debian-Facile, site d'aide pour les nouveaux utilisateurs de Debian.

Vous n'êtes pas identifié(e).

#1 17-11-2019 08:30:47

Trefix
Membre
Lieu : 48
Distrib. : buster 10.9 + bpo
Noyau : linux 4.19.0-16-amd64
(G)UI : Xfce4 4.12.5
Inscription : 15-02-2015

Ripper DVD

Bonjour.

En attendant, j'ai testé le script du wikidf : install des paquets demandés, copie du script, rendu exécutable etc. J'ai lancé, hier soir et...

./dvd_extraction.sh


GNU ddrescue 1.23
Press Ctrl-C to interrupt
     ipos:    7867 MB, non-trimmed:        0 B,  current rate:    145 kB/s
     opos:    7867 MB, non-scraped:    3158 MB,  average rate:    530 kB/s
non-tried:        0 B,  bad-sector:   82137 kB,    error rate:   18432 B/s
  rescued:    4627 MB,   bad areas:    40095,        run time:  2h 25m 20s
pct rescued:   58.81%, read errors:   108016,  remaining time:      3h 19m
                              time since last successful read:         n/a
Finished                                      
libdvdread: Encrypted DVD support unavailable.
************************************************
**                                            **
**  No css library available. See             **
**  /usr/share/doc/libdvdread4/README.css     **
**  for more information.                     **
**                                            **
************************************************
Copie en cours menu: 100% fait (38/38 MiB)
Copie en cours menu: 100% fait (0/0 MiB)
Copie en cours Titre, chapitre 1/6: 100% fait (1024/1024 MiB)
Copie en cours Titre, chapitre 2/6: 100% fait (1024/1024 MiB)
Copie en cours Titre, chapitre 3/6: 100% fait (1024/1024 MiB)
Copie en cours Titre, chapitre 4/6: 100% fait (1024/1024 MiB)
Copie en cours Titre, chapitre 5/6: 100% fait (1024/1024 MiB)
Copie en cours Titre, chapitre 6/6: 100% fait (144/144 MiB)
Copie en cours menu: 100% fait (0/0 MiB)
Copie en cours Titre, chapitre 1/1: 100% fait (65/65 MiB)
Copie en cours menu: 100% fait (0/0 MiB)
Copie en cours Titre, chapitre 1/1: 100% fait (67/67 MiB)
Copie en cours menu: 100% fait (0/0 MiB)
Copie en cours Titre, chapitre 1/3: 100% fait (1024/1024 MiB)
Copie en cours Titre, chapitre 2/3: 100% fait (1024/1024 MiB)
Copie en cours Titre, chapitre 3/3: 100% fait (22/22 MiB)
./dvd_extraction.sh: ligne 36: rename : commande introuvable
 



Je pose ça là pour ceux qui sauraient/voudraient tatouiller le script, en attendant celui de golgot200.

Bon dimanche.

Hors ligne

#2 17-11-2019 09:18:56

golgot200
Membre
Distrib. : Archlinux 2018-02-03
Noyau : 5.11.12-arch1-1
(G)UI : Mate (Strict Minimum)
Inscription : 05-08-2007

Re : Ripper DVD

Bonjour Trefix.


./dvd_extraction.sh: ligne 36: rename : commande introuvable




apt install rename

Hors ligne

#3 17-11-2019 11:05:08

Trefix
Membre
Lieu : 48
Distrib. : buster 10.9 + bpo
Noyau : linux 4.19.0-16-amd64
(G)UI : Xfce4 4.12.5
Inscription : 15-02-2015

Re : Ripper DVD

Habawouï, ch'uis con ops.gifops.gif

Hors ligne

#4 17-11-2019 11:07:32

golgot200
Membre
Distrib. : Archlinux 2018-02-03
Noyau : 5.11.12-arch1-1
(G)UI : Mate (Strict Minimum)
Inscription : 05-08-2007

Re : Ripper DVD

smile

Si tu veux me faire un retour sur mon script 534, ça sera serait vraiment cool smile

https://debian-facile.org/viewtopic.php?id=24453&p=22

Dernière modification par golgot200 (17-11-2019 11:07:45)

Hors ligne

#5 17-11-2019 11:28:58

Trefix
Membre
Lieu : 48
Distrib. : buster 10.9 + bpo
Noyau : linux 4.19.0-16-amd64
(G)UI : Xfce4 4.12.5
Inscription : 15-02-2015

Re : Ripper DVD

Bonjour.

Bon, des m... en installant les paquets que tu m'avais désignés :

ffmpeg est déjà la version la plus récente (7:4.1.4-1~deb10u1).
ffmpeg passé en « installé manuellement ».
lsdvd est déjà la version la plus récente (0.17-1+b1).
util-linux est déjà la version la plus récente (2.33.1-0.1).
Les paquets supplémentaires suivants seront installés :
  libboost-regex1.67.0 libdirectfb-1.7-7 libenca0 liblzo2-2 libpugixml1v5
  libvorbisidec1
Paquets suggérés :
  libdirectfb-extra mplayer-doc mkvtoolnix-gui netselect | fping
Les NOUVEAUX paquets suivants seront installés :
  libboost-regex1.67.0 libdirectfb-1.7-7 libenca0 liblzo2-2 libpugixml1v5
  libvorbisidec1 mencoder mkvtoolnix mplayer ogmtools
0 mis à jour, 10 nouvellement installés, 0 à enlever et 0 non mis à jour.
Il est nécessaire de prendre 8847 ko dans les archives.
Après cette opération, 35,0 Mo d'espace disque supplémentaires seront utilisés.
Souhaitez-vous continuer ? [O/n]
Réception de :1 http://deb.debian.org/debian buster/main amd64 libboost-regex1.67.0 amd64 1.67.0-13 [484 kB]
Réception de :2 http://deb.debian.org/debian buster/main amd64 libdirectfb-1.7-7 amd64 1.7.7-9 [1048 kB]
Réception de :3 http://deb.debian.org/debian buster/main amd64 libenca0 amd64 1.19-1+b1 [62,5 kB]
Réception de :4 http://deb.debian.org/debian buster/main amd64 liblzo2-2 amd64 2.10-0.1 [56,1 kB]
Réception de :5 http://deb.debian.org/debian buster/main amd64 libpugixml1v5 amd64 1.9-3 [89,3 kB]
Réception de :6 http://deb.debian.org/debian buster/main amd64 libvorbisidec1 amd64 1.2.1+git20180316-3 [73,1 kB]
Réception de :7 http://deb.debian.org/debian buster/main amd64 mplayer amd64 2:1.3.0-8+b4 [2315 kB]
Réception de :8 http://deb.debian.org/debian buster/main amd64 mencoder amd64 2:1.3.0-8+b4 [857 kB]
Réception de :9 http://deb.debian.org/debian buster/main amd64 mkvtoolnix amd64 31.0.0-1 [3745 kB]
Réception de :10 http://deb.debian.org/debian buster/main amd64 ogmtools amd64 1:1.5-4+b1 [117 kB]
8847 ko réceptionnés en 19s (458 ko/s)                                        
Sélection du paquet libboost-regex1.67.0:amd64 précédemment désélectionné.
(Lecture de la base de données... 112415 fichiers et répertoires déjà installés.)
Préparation du dépaquetage de .../0-libboost-regex1.67.0_1.67.0-13_amd64.deb ...
Dépaquetage de libboost-regex1.67.0:amd64 (1.67.0-13) ...
Sélection du paquet libdirectfb-1.7-7:amd64 précédemment désélectionné.
Préparation du dépaquetage de .../1-libdirectfb-1.7-7_1.7.7-9_amd64.deb ...
Dépaquetage de libdirectfb-1.7-7:amd64 (1.7.7-9) ...
Sélection du paquet libenca0:amd64 précédemment désélectionné.
Préparation du dépaquetage de .../2-libenca0_1.19-1+b1_amd64.deb ...
Dépaquetage de libenca0:amd64 (1.19-1+b1) ...
Sélection du paquet liblzo2-2:amd64 précédemment désélectionné.
Préparation du dépaquetage de .../3-liblzo2-2_2.10-0.1_amd64.deb ...
Dépaquetage de liblzo2-2:amd64 (2.10-0.1) ...
Sélection du paquet libpugixml1v5:amd64 précédemment désélectionné.
Préparation du dépaquetage de .../4-libpugixml1v5_1.9-3_amd64.deb ...
Dépaquetage de libpugixml1v5:amd64 (1.9-3) ...
Sélection du paquet libvorbisidec1 précédemment désélectionné.
Préparation du dépaquetage de .../5-libvorbisidec1_1.2.1+git20180316-3_amd64.deb ...
Dépaquetage de libvorbisidec1 (1.2.1+git20180316-3) ...
Sélection du paquet mplayer précédemment désélectionné.
Préparation du dépaquetage de .../6-mplayer_2%3a1.3.0-8+b4_amd64.deb ...
Dépaquetage de mplayer (2:1.3.0-8+b4) ...
Sélection du paquet mencoder précédemment désélectionné.
Préparation du dépaquetage de .../7-mencoder_2%3a1.3.0-8+b4_amd64.deb ...
Dépaquetage de mencoder (2:1.3.0-8+b4) ...
Sélection du paquet mkvtoolnix précédemment désélectionné.
Préparation du dépaquetage de .../8-mkvtoolnix_31.0.0-1_amd64.deb ...
update-alternatives: erreur: pas d'alternatives pour mkvinfo
Dépaquetage de mkvtoolnix (31.0.0-1) ...
Sélection du paquet ogmtools précédemment désélectionné.
Préparation du dépaquetage de .../9-ogmtools_1%3a1.5-4+b1_amd64.deb ...
Dépaquetage de ogmtools (1:1.5-4+b1) ...
Paramétrage de libboost-regex1.67.0:amd64 (1.67.0-13) ...
Paramétrage de libvorbisidec1 (1.2.1+git20180316-3) ...
Paramétrage de libenca0:amd64 (1.19-1+b1) ...
Paramétrage de liblzo2-2:amd64 (2.10-0.1) ...
Paramétrage de libpugixml1v5:amd64 (1.9-3) ...
Paramétrage de ogmtools (1:1.5-4+b1) ...
Paramétrage de mkvtoolnix (31.0.0-1) ...
Paramétrage de libdirectfb-1.7-7:amd64 (1.7.7-9) ...
Paramétrage de mplayer (2:1.3.0-8+b4) ...
Paramétrage de mencoder (2:1.3.0-8+b4) ...
Traitement des actions différées (« triggers ») pour hicolor-icon-theme (0.17-2) ...
Traitement des actions différées (« triggers ») pour libc-bin (2.28-10) ...
Traitement des actions différées (« triggers ») pour man-db (2.8.5-2) ...
Traitement des actions différées (« triggers ») pour mime-support (3.62) ...
libdvd-pkg: Downloading orig source...
I: libdvdcss_1.4.2
/usr/bin/wget --tries=3 --timeout=40 --read-timeout=40 --continue -O libdvdcss_1.4.2.orig.tar.bz2 \
          http://download.videolan.org/pub/libdvdcss/1.4.2/libdvdcss-1.4.2.tar.bz2 \
        || /usr/bin/uscan --noconf --verbose --rename --destdir=/usr/src/libdvd-pkg --check-dirname-level=0 --force-download --download-current-version /usr/share/libdvd-pkg/debian
--2019-11-17 10:24:46--  http://download.videolan.org/pub/libdvdcss/1.4.2/libdvdcss-1.4.2.tar.bz2
Résolution de download.videolan.org (download.videolan.org)… 88.191.250.2, 2a01:e0d:1:3:58bf:fa02:c0de:5
Connexion à download.videolan.org (download.videolan.org)|88.191.250.2|:80… connecté.
requête HTTP transmise, en attente de la réponse… 200 OK
Taille : 366824 (358K) [application/octet-stream]
Sauvegarde en : « libdvdcss_1.4.2.orig.tar.bz2 »

libdvdcss_1.4.2.ori 100%[===================>] 358,23K   451KB/s    ds 0,8s    

2019-11-17 10:24:47 (451 KB/s) — « libdvdcss_1.4.2.orig.tar.bz2 » sauvegardé [366824/366824]

libdvd-pkg: Checking orig.tar integrity...
/usr/src/libdvd-pkg/libdvdcss_1.4.2.orig.tar.bz2: Réussi
libdvd-pkg: `apt-get check` failed, you may have broken packages. Aborting...



Comme je fais plusieurs trucs en même temps...

@+

Hors ligne

#6 17-11-2019 11:33:50

golgot200
Membre
Distrib. : Archlinux 2018-02-03
Noyau : 5.11.12-arch1-1
(G)UI : Mate (Strict Minimum)
Inscription : 05-08-2007

Re : Ripper DVD

libdvd-pkg: `apt-get check` failed, you may have broken packages. Aborting...



essaies :

dpkg-reconfigure libdvd-pkg

Hors ligne

#7 17-11-2019 11:48:36

Trefix
Membre
Lieu : 48
Distrib. : buster 10.9 + bpo
Noyau : linux 4.19.0-16-amd64
(G)UI : Xfce4 4.12.5
Inscription : 15-02-2015

Re : Ripper DVD

Ça m'a l'air OK.

Le p... de DVD est un machin "de salon" de 2012 qui se lance (parfois) tout seul OU envoie sur un menu vérolé (pas pleinement fonctionnel avec le lecteur de salon Sony), ça m'a l'air d'être un bon client pour ton script...

Au fait, pour le rendre proprement exécutable, mon "golgot-534.sh", quelle est la meilleur manip' ? J'ai vu dans le wiki plusieurs combinaisons d'arguments pour chmod, je ne sais pas laquelle serait la meilleure ici.




PS : besoin de rename ?

Dernière modification par Trefix (17-11-2019 12:05:01)

Hors ligne

#8 17-11-2019 12:03:00

golgot200
Membre
Distrib. : Archlinux 2018-02-03
Noyau : 5.11.12-arch1-1
(G)UI : Mate (Strict Minimum)
Inscription : 05-08-2007

Re : Ripper DVD

Bah moi, je ne m'embête pas.
Un clic droit sur le fichier --- propriètés -- permissions -- cocher "Autoriser l'exécution du fichier comme un programme"

Hors ligne

#9 17-11-2019 12:09:51

Debian Alain
Adhérent(e)
Lieu : Bretagne
Distrib. : sid / bullseye (future stable)
Noyau : Linux -5.10.0-7-amd64
(G)UI : Gnome X.org (X11) / GDM3
Inscription : 11-03-2017
Site Web

Re : Ripper DVD

oui , sinon , y a "chmod +x <fichier>" ou "chmod u+x <fichier>" .

connais pas trop la différence . pour moi , c'est kif kif .

https://forums.cnetfrance.fr/topic/7765 … nux--unix/

Dernière modification par Debian Alain (17-11-2019 12:13:27)

En ligne

#10 17-11-2019 12:12:42

Trefix
Membre
Lieu : 48
Distrib. : buster 10.9 + bpo
Noyau : linux 4.19.0-16-amd64
(G)UI : Xfce4 4.12.5
Inscription : 15-02-2015

Re : Ripper DVD

Done en  graphique, donc.

Début des opérations (et message d'erreur) :

trefix@neness:~$ ./golgot-534.sh
Aucun dvd vidéo monté : Abandon
trefix@neness:~$ mount /dev/sr0
mount: /media/cdrom0: Attention: périphérique protégé en écriture, monté en lecture seule.
trefix@neness:~$ ./golgot-534.sh
Proceed...
/home/trefix/Bureau/ARCHIVAGE_DVD/DEFAULTPAL_SCN-UUID="426858dd00000000" n'existe pas !
Création Du Dossier /home/trefix/Bureau/ARCHIVAGE_DVD/DEFAULTPAL_SCN-UUID="426858dd00000000"
MPlayer 1.3.0 (Debian), built with gcc-8 (C) 2000-2016 MPlayer Team
Can't open joystick device /dev/input/js0: No such file or directory
Can't init input joystick
do_connect: could not connect to socket
connect: No such file or directory
Failed to open LIRC support. You will not be able to use your remote control.

Playing dvdnav://1.
Limiting DVD speed to 16200KB/s... successful
libdvdnav: Using dvdnav version 6.0.0
libdvdnav: DVD Title: DEFAULTPAL_SCN
libdvdnav: DVD Serial Number: 426858dd
libdvdnav: DVD Title (Alternative):
libdvdnav: DVD disk reports itself with Region mask 0x00000000. Regions: 1 2 3 4 5 6 7 8

libdvdread: Attempting to retrieve all CSS keys
libdvdread: This can take a _long_ time, please be patient

libdvdread: Get key for /VIDEO_TS/VIDEO_TS.VOB at 0x0000013e
libdvdread: Elapsed time 0
libdvdread: Get key for /VIDEO_TS/VTS_01_0.VOB at 0x00004d63
libdvdread: Elapsed time 0
libdvdread: Get key for /VIDEO_TS/VTS_01_1.VOB at 0x00004d68
libdvdread: Elapsed time 0
libdvdread: Get key for /VIDEO_TS/VTS_02_0.VOB at 0x00296b45
libdvdread: Elapsed time 0
libdvdread: Get key for /VIDEO_TS/VTS_02_1.VOB at 0x00296b4a
libdvdread: Elapsed time 0
libdvdread: Get key for /VIDEO_TS/VTS_03_0.VOB at 0x0029ed7c
libdvdread: Elapsed time 0
libdvdread: Get key for /VIDEO_TS/VTS_03_1.VOB at 0x0029ed81
libdvdread: Elapsed time 0
libdvdread: Get key for /VIDEO_TS/VTS_04_0.VOB at 0x002a7341
libdvdread: Elapsed time 0
libdvdread: Get key for /VIDEO_TS/VTS_04_1.VOB at 0x002a7346
libdvdread: Elapsed time 0
libdvdread: Found 4 VTS's
libdvdread: Elapsed time 0
libdvdnav: Language 'en' not found, using 'fr' instead
libdvdnav: Menu Languages available: fr
audio stream: 0 format: ac3 (stereo) language: fr aid: 128.
audio stream: 1 format: ac3 (5.1) language: en aid: 129.
subtitle ( sid ): 0 language: fr

INIT ERROR: couldn't get init pos New position not yet determined.
Remember to disable MPlayer's cache when playing dvdnav:// streams (adding -nocache to your command line)
DVDNAV, switched to title: 1
audio stream: 0 format: ac3 (stereo) language: fr aid: 128.
audio stream: 1 format: ac3 (5.1) language: en aid: 129.
subtitle ( sid ): 0 language: fr
dump: 548003840 bytes written (~9.9%)



Ça mouline...

Hors ligne

#11 17-11-2019 12:12:53

golgot200
Membre
Distrib. : Archlinux 2018-02-03
Noyau : 5.11.12-arch1-1
(G)UI : Mate (Strict Minimum)
Inscription : 05-08-2007

Re : Ripper DVD

Trefix a écrit :

...


PS : besoin de rename ?



non wink


Je pense que l'on devrait passer sur le post adéquat. On va se mélanger les pinceaux tongue

Hors ligne

#12 17-11-2019 12:15:32

golgot200
Membre
Distrib. : Archlinux 2018-02-03
Noyau : 5.11.12-arch1-1
(G)UI : Mate (Strict Minimum)
Inscription : 05-08-2007

Re : Ripper DVD

Trefix a écrit :

Done en  graphique, donc.

Début des opérations (et message d'erreur) :

trefix@neness:~$ ./golgot-534.sh
Aucun dvd vidéo monté : Abandon
trefix@neness:~$ mount /dev/sr0
mount: /media/cdrom0: Attention: périphérique protégé en écriture, monté en lecture seule.
trefix@neness:~$ ./golgot-534.sh
Proceed...
/home/trefix/Bureau/ARCHIVAGE_DVD/DEFAULTPAL_SCN-UUID="426858dd00000000" n'existe pas !
Création Du Dossier /home/trefix/Bureau/ARCHIVAGE_DVD/DEFAULTPAL_SCN-UUID="426858dd00000000"
MPlayer 1.3.0 (Debian), built with gcc-8 (C) 2000-2016 MPlayer Team
Can't open joystick device /dev/input/js0: No such file or directory
Can't init input joystick
do_connect: could not connect to socket
connect: No such file or directory
Failed to open LIRC support. You will not be able to use your remote control.

Playing dvdnav://1.
Limiting DVD speed to 16200KB/s... successful
libdvdnav: Using dvdnav version 6.0.0
libdvdnav: DVD Title: DEFAULTPAL_SCN
libdvdnav: DVD Serial Number: 426858dd
libdvdnav: DVD Title (Alternative):
libdvdnav: DVD disk reports itself with Region mask 0x00000000. Regions: 1 2 3 4 5 6 7 8

libdvdread: Attempting to retrieve all CSS keys
libdvdread: This can take a _long_ time, please be patient

libdvdread: Get key for /VIDEO_TS/VIDEO_TS.VOB at 0x0000013e
libdvdread: Elapsed time 0
libdvdread: Get key for /VIDEO_TS/VTS_01_0.VOB at 0x00004d63
libdvdread: Elapsed time 0
libdvdread: Get key for /VIDEO_TS/VTS_01_1.VOB at 0x00004d68
libdvdread: Elapsed time 0
libdvdread: Get key for /VIDEO_TS/VTS_02_0.VOB at 0x00296b45
libdvdread: Elapsed time 0
libdvdread: Get key for /VIDEO_TS/VTS_02_1.VOB at 0x00296b4a
libdvdread: Elapsed time 0
libdvdread: Get key for /VIDEO_TS/VTS_03_0.VOB at 0x0029ed7c
libdvdread: Elapsed time 0
libdvdread: Get key for /VIDEO_TS/VTS_03_1.VOB at 0x0029ed81
libdvdread: Elapsed time 0
libdvdread: Get key for /VIDEO_TS/VTS_04_0.VOB at 0x002a7341
libdvdread: Elapsed time 0
libdvdread: Get key for /VIDEO_TS/VTS_04_1.VOB at 0x002a7346
libdvdread: Elapsed time 0
libdvdread: Found 4 VTS's
libdvdread: Elapsed time 0
libdvdnav: Language 'en' not found, using 'fr' instead
libdvdnav: Menu Languages available: fr
audio stream: 0 format: ac3 (stereo) language: fr aid: 128.
audio stream: 1 format: ac3 (5.1) language: en aid: 129.
subtitle ( sid ): 0 language: fr

INIT ERROR: couldn't get init pos New position not yet determined.
Remember to disable MPlayer's cache when playing dvdnav:// streams (adding -nocache to your command line)
DVDNAV, switched to title: 1
audio stream: 0 format: ac3 (stereo) language: fr aid: 128.
audio stream: 1 format: ac3 (5.1) language: en aid: 129.
subtitle ( sid ): 0 language: fr
dump: 548003840 bytes written (~9.9%)



Ça mouline...



Là tu te retrouveras avec un titre mkv avec la bande audio française sans le soutitres français wink

Il n'y a pas de message d'erreur pour l'instant.

INIT ERROR: couldn't get init pos New position not yet determined.



C'est dvdnav, c'est pas grave smile

Dernière modification par golgot200 (17-11-2019 12:17:35)

Hors ligne

#13 17-11-2019 12:18:21

Trefix
Membre
Lieu : 48
Distrib. : buster 10.9 + bpo
Noyau : linux 4.19.0-16-amd64
(G)UI : Xfce4 4.12.5
Inscription : 15-02-2015

Re : Ripper DVD

Autant brouillonner ici avec mes retours divers et remettre en forme ensuite sur le fil de ton script, non ?...

Hors ligne

#14 17-11-2019 12:21:09

golgot200
Membre
Distrib. : Archlinux 2018-02-03
Noyau : 5.11.12-arch1-1
(G)UI : Mate (Strict Minimum)
Inscription : 05-08-2007

Re : Ripper DVD

Trefix a écrit :

Autant brouillonner ici avec mes retours divers et remettre en forme ensuite sur le fil de ton script, non ?...



OK pas de problème. wink

Hors ligne

#15 17-11-2019 12:22:39

Trefix
Membre
Lieu : 48
Distrib. : buster 10.9 + bpo
Noyau : linux 4.19.0-16-amd64
(G)UI : Xfce4 4.12.5
Inscription : 15-02-2015

Re : Ripper DVD

Ça commence à faire de la ligne !

trefix@neness:~$ ./golgot-534.sh
Aucun dvd vidéo monté : Abandon
trefix@neness:~$ mount /dev/sr0
mount: /media/cdrom0: Attention: périphérique protégé en écriture, monté en lecture seule.
trefix@neness:~$ ./golgot-534.sh
Proceed...
/home/trefix/Bureau/ARCHIVAGE_DVD/DEFAULTPAL_SCN-UUID="426858dd00000000" n'existe pas !
Création Du Dossier /home/trefix/Bureau/ARCHIVAGE_DVD/DEFAULTPAL_SCN-UUID="426858dd00000000"
MPlayer 1.3.0 (Debian), built with gcc-8 (C) 2000-2016 MPlayer Team
Can't open joystick device /dev/input/js0: No such file or directory
Can't init input joystick
do_connect: could not connect to socket
connect: No such file or directory
Failed to open LIRC support. You will not be able to use your remote control.

Playing dvdnav://1.
Limiting DVD speed to 16200KB/s... successful
libdvdnav: Using dvdnav version 6.0.0
libdvdnav: DVD Title: DEFAULTPAL_SCN
libdvdnav: DVD Serial Number: 426858dd
libdvdnav: DVD Title (Alternative):
libdvdnav: DVD disk reports itself with Region mask 0x00000000. Regions: 1 2 3 4 5 6 7 8

libdvdread: Attempting to retrieve all CSS keys
libdvdread: This can take a _long_ time, please be patient

libdvdread: Get key for /VIDEO_TS/VIDEO_TS.VOB at 0x0000013e
libdvdread: Elapsed time 0
libdvdread: Get key for /VIDEO_TS/VTS_01_0.VOB at 0x00004d63
libdvdread: Elapsed time 0
libdvdread: Get key for /VIDEO_TS/VTS_01_1.VOB at 0x00004d68
libdvdread: Elapsed time 0
libdvdread: Get key for /VIDEO_TS/VTS_02_0.VOB at 0x00296b45
libdvdread: Elapsed time 0
libdvdread: Get key for /VIDEO_TS/VTS_02_1.VOB at 0x00296b4a
libdvdread: Elapsed time 0
libdvdread: Get key for /VIDEO_TS/VTS_03_0.VOB at 0x0029ed7c
libdvdread: Elapsed time 0
libdvdread: Get key for /VIDEO_TS/VTS_03_1.VOB at 0x0029ed81
libdvdread: Elapsed time 0
libdvdread: Get key for /VIDEO_TS/VTS_04_0.VOB at 0x002a7341
libdvdread: Elapsed time 0
libdvdread: Get key for /VIDEO_TS/VTS_04_1.VOB at 0x002a7346
libdvdread: Elapsed time 0
libdvdread: Found 4 VTS's
libdvdread: Elapsed time 0
libdvdnav: Language 'en' not found, using 'fr' instead
libdvdnav: Menu Languages available: fr
audio stream: 0 format: ac3 (stereo) language: fr aid: 128.
audio stream: 1 format: ac3 (5.1) language: en aid: 129.
subtitle ( sid ): 0 language: fr

INIT ERROR: couldn't get init pos New position not yet determined.
Remember to disable MPlayer's cache when playing dvdnav:// streams (adding -nocache to your command line)
DVDNAV, switched to title: 1
audio stream: 0 format: ac3 (stereo) language: fr aid: 128.
audio stream: 1 format: ac3 (5.1) language: en aid: 129.
subtitle ( sid ): 0 language: fr
libdvdnav: Language 'en' not found, using 'fr' instead
libdvdnav: Menu Languages available: fr
libdvdnav: Language 'en' not found, using 'fr' instead
libdvdnav: Menu Languages available: fr
libdvdnav: Language 'en' not found, using 'fr' instead
libdvdnav: Menu Languages available: fr
libdvdnav: Language 'en' not found, using 'fr' instead
libdvdnav: Menu Languages available: fr

DVDNAV, switched to title: 1
audio stream: 0 format: ac3 (stereo) language: unknown aid: 128.
audio stream: 1 format: ac3 (stereo) language: unknown aid: 129.
audio stream: 2 format: ac3 (stereo) language: unknown aid: 130.
audio stream: 3 format: ac3 (stereo) language: unknown aid: 131.
audio stream: 4 format: ac3 (stereo) language: unknown aid: 132.
audio stream: 5 format: ac3 (stereo) language: unknown aid: 133.
audio stream: 6 format: ac3 (stereo) language: unknown aid: 134.
audio stream: 7 format: ac3 (stereo) language: unknown aid: 135.
subtitle ( sid ): 0 language: unknown
subtitle ( sid ): 0 language: unknown
subtitle ( sid ): 0 language: unknown
subtitle ( sid ): 0 language: unknown
subtitle ( sid ): 0 language: unknown
subtitle ( sid ): 0 language: unknown
subtitle ( sid ): 0 language: unknown
subtitle ( sid ): 0 language: unknown
subtitle ( sid ): 0 language: unknown
subtitle ( sid ): 0 language: unknown
subtitle ( sid ): 0 language: unknown
subtitle ( sid ): 0 language: unknown
subtitle ( sid ): 0 language: unknown
subtitle ( sid ): 0 language: unknown
subtitle ( sid ): 0 language: unknown
subtitle ( sid ): 0 language: unknown
subtitle ( sid ): 0 language: unknown
subtitle ( sid ): 0 language: unknown
subtitle ( sid ): 0 language: unknown
subtitle ( sid ): 0 language: unknown
subtitle ( sid ): 0 language: unknown
subtitle ( sid ): 0 language: unknown
subtitle ( sid ): 0 language: unknown
subtitle ( sid ): 0 language: unknown
subtitle ( sid ): 0 language: unknown
subtitle ( sid ): 0 language: unknown
subtitle ( sid ): 0 language: unknown
subtitle ( sid ): 0 language: unknown
subtitle ( sid ): 0 language: unknown
subtitle ( sid ): 0 language: unknown
subtitle ( sid ): 0 language: unknown
subtitle ( sid ): 0 language: unknown
libdvdnav: Language 'en' not found, using 'fr' instead
libdvdnav: Menu Languages available: fr

dump: 5518454784 bytes written to '/home/trefix/Bureau/ARCHIVAGE_DVD/DEFAULTPAL_SCN-UUID="426858dd00000000"/1-DEFAULTPAL_SCN.vob'.
Core dumped ;)
Restoring DVD speed... successful

Exiting... (End of file)
ffmpeg version 4.1.4-1~deb10u1 Copyright (c) 2000-2019 the FFmpeg developers
  built with gcc 8 (Debian 8.3.0-6)
  configuration: --prefix=/usr --extra-version='1~deb10u1' --toolchain=hardened --libdir=/usr/lib/x86_64-linux-gnu --incdir=/usr/include/x86_64-linux-gnu --arch=amd64 --enable-gpl --disable-stripping --enable-avresample --disable-filter=resample --enable-avisynth --enable-gnutls --enable-ladspa --enable-libaom --enable-libass --enable-libbluray --enable-libbs2b --enable-libcaca --enable-libcdio --enable-libcodec2 --enable-libflite --enable-libfontconfig --enable-libfreetype --enable-libfribidi --enable-libgme --enable-libgsm --enable-libjack --enable-libmp3lame --enable-libmysofa --enable-libopenjpeg --enable-libopenmpt --enable-libopus --enable-libpulse --enable-librsvg --enable-librubberband --enable-libshine --enable-libsnappy --enable-libsoxr --enable-libspeex --enable-libssh --enable-libtheora --enable-libtwolame --enable-libvidstab --enable-libvorbis --enable-libvpx --enable-libwavpack --enable-libwebp --enable-libx265 --enable-libxml2 --enable-libxvid --enable-libzmq --enable-libzvbi --enable-lv2 --enable-omx --enable-openal --enable-opengl --enable-sdl2 --enable-libdc1394 --enable-libdrm --enable-libiec61883 --enable-chromaprint --enable-frei0r --enable-libx264 --enable-shared
  libavutil      56. 22.100 / 56. 22.100
  libavcodec     58. 35.100 / 58. 35.100
  libavformat    58. 20.100 / 58. 20.100
  libavdevice    58.  5.100 / 58.  5.100
  libavfilter     7. 40.101 /  7. 40.101
  libavresample   4.  0.  0 /  4.  0.  0
  libswscale      5.  3.100 /  5.  3.100
  libswresample   3.  3.100 /  3.  3.100
  libpostproc    55.  3.100 / 55.  3.100
[mpeg @ 0x559f13013200] max_analyze_duration 1000000000 reached at 1000000000 microseconds st:1
Input #0, mpeg, from '/home/trefix/Bureau/ARCHIVAGE_DVD/DEFAULTPAL_SCN-UUID="426858dd00000000"/1-DEFAULTPAL_SCN.vob':
  Duration: 01:47:33.72, start: 0.287267, bitrate: 6840 kb/s
    Stream #0:0[0x1bf]: Data: dvd_nav_packet
    Stream #0:1[0x1e0]: Video: mpeg2video (Main), 1 reference frame, yuv420p(tv, top first, left), 720x576 [SAR 64:45 DAR 16:9], 25 fps, 25 tbr, 90k tbn, 50 tbc
    Stream #0:2[0x80]: Audio: ac3, 48000 Hz, stereo, fltp, 256 kb/s
    Stream #0:3[0x81]: Audio: ac3, 48000 Hz, 5.1(side), fltp, 448 kb/s
    Stream #0:4[0x20]: Subtitle: dvd_subtitle
    Stream #0:5[0x21]: Subtitle: dvd_subtitle
[mpeg @ 0x559f13013200] Invalid stream specifier: 0-map.
[mpeg @ 0x559f13013200] Invalid stream specifier: i:0-map.######################
[mpeg @ 0x559f13013200] Invalid stream specifier: 0-map.########################
[mpeg @ 0x559f13013200] Invalid stream specifier: i:0-map.######################
[mpeg @ 0x559f13013200] Invalid stream specifier: 0-map.########################
[mpeg @ 0x559f13013200] Invalid stream specifier: i:0-map.######################
[mpeg @ 0x559f13013200] Invalid stream specifier: 0-map.########################
[mpeg @ 0x559f13013200] Invalid stream specifier: i:0-map.######################
[mpeg @ 0x559f13013200] Invalid stream specifier: 0-map.########################
[mpeg @ 0x559f13013200] Invalid stream specifier: i:0-map.######################
[mpeg @ 0x559f13013200] Invalid stream specifier: 0-map.########################
[mpeg @ 0x559f13013200] Invalid stream specifier: i:0-map.######################
Stream map 'i:0-map' matches no streams.########################################
To ignore this, add a trailing '?' to the map.##################################
[AVIOContext @ 0x559f1301c400] Statistics: 856182928 bytes read, 3 seeks########
Encodage sur VOB avec AC3 ... OK################################################
mkvmerge v31.0.0 ('Dolores In A Shoestand') 64-bit
Erreur : Le fichier « /home/trefix/Bureau/ARCHIVAGE_DVD/DEFAULTPAL_SCN-UUID="426858dd00000000"/1-DEFAULTPAL_SCN.mkv » ne peut pas être ouvert en lecture : open file error.
MEncoder 1.3.0 (Debian), built with gcc-8 (C) 2000-2016 MPlayer Team
libdvdnav: Using dvdnav version 6.0.0
libdvdnav: DVD Title: DEFAULTPAL_SCN
libdvdnav: DVD Serial Number: 426858dd
libdvdnav: DVD Title (Alternative):
libdvdnav: DVD disk reports itself with Region mask 0x00000000. Regions: 1 2 3 4 5 6 7 8

libdvdread: Attempting to retrieve all CSS keys
libdvdread: This can take a _long_ time, please be patient

libdvdread: Get key for /VIDEO_TS/VIDEO_TS.VOB at 0x0000013e
libdvdread: Elapsed time 0
libdvdread: Get key for /VIDEO_TS/VTS_01_0.VOB at 0x00004d63
libdvdread: Elapsed time 0
libdvdread: Get key for /VIDEO_TS/VTS_01_1.VOB at 0x00004d68
libdvdread: Elapsed time 0
libdvdread: Get key for /VIDEO_TS/VTS_02_0.VOB at 0x00296b45
libdvdread: Elapsed time 0
libdvdread: Get key for /VIDEO_TS/VTS_02_1.VOB at 0x00296b4a
libdvdread: Elapsed time 0
libdvdread: Get key for /VIDEO_TS/VTS_03_0.VOB at 0x0029ed7c
libdvdread: Elapsed time 0
libdvdread: Get key for /VIDEO_TS/VTS_03_1.VOB at 0x0029ed81
libdvdread: Elapsed time 0
libdvdread: Get key for /VIDEO_TS/VTS_04_0.VOB at 0x002a7341
libdvdread: Elapsed time 0
libdvdread: Get key for /VIDEO_TS/VTS_04_1.VOB at 0x002a7346
libdvdread: Elapsed time 0
libdvdread: Found 4 VTS's
libdvdread: Elapsed time 0
libdvdnav: Language 'en' not found, using 'fr' instead
libdvdnav: Menu Languages available: fr
audio stream: 0 format: ac3 (stereo) language: fr aid: 128.
audio stream: 1 format: ac3 (5.1) language: en aid: 129.
subtitle ( sid ): 0 language: fr

INIT ERROR: couldn't get init pos New position not yet determined.
Remember to disable MPlayer's cache when playing dvdnav:// streams (adding -nocache to your command line)
success: format: 2  data: 0x0 - 0x0
DVDNAV, switched to title: 1
audio stream: 0 format: ac3 (stereo) language: fr aid: 128.
audio stream: 1 format: ac3 (5.1) language: en aid: 129.
subtitle ( sid ): 0 language: fr

MPEG-PS file format detected.
VIDEO:  MPEG2  720x576  (aspect 3)  25.000 fps  7000.0 kbps (875.0 kbyte/s)
[V] filefmt:2  fourcc:0x10000002  size:720x576  fps:25.000  ftime:=0.0400
VobSub: Can't open IFO file
videocodec: framecopy (720x576 24bpp fourcc=10000002)
Writing header...
ODML: vprp aspect is 16:9.
Writing header...
ODML: vprp aspect is 16:9.
Pos: 448.3s  11209f ( 6%) 154.11fps Trem:  16min 4622mb  A-V:0.000 [6012:0]

Hors ligne

#16 17-11-2019 12:26:28

golgot200
Membre
Distrib. : Archlinux 2018-02-03
Noyau : 5.11.12-arch1-1
(G)UI : Mate (Strict Minimum)
Inscription : 05-08-2007

Re : Ripper DVD

A là, oui il y a de la mer...

Le premier titre à foiré au niveau des map.

Dernière modification par golgot200 (17-11-2019 12:26:50)

Hors ligne

#17 17-11-2019 12:28:29

golgot200
Membre
Distrib. : Archlinux 2018-02-03
Noyau : 5.11.12-arch1-1
(G)UI : Mate (Strict Minimum)
Inscription : 05-08-2007

Re : Ripper DVD

ça, ça fait peur :



[mpeg @ 0x559f13013200] Invalid stream specifier: 0-map.
[mpeg @ 0x559f13013200] Invalid stream specifier: i:0-map.######################
[mpeg @ 0x559f13013200] Invalid stream specifier: 0-map.########################
[mpeg @ 0x559f13013200] Invalid stream specifier: i:0-map.######################
[mpeg @ 0x559f13013200] Invalid stream specifier: 0-map.########################
[mpeg @ 0x559f13013200] Invalid stream specifier: i:0-map.######################
[mpeg @ 0x559f13013200] Invalid stream specifier: 0-map.########################
[mpeg @ 0x559f13013200] Invalid stream specifier: i:0-map.######################
[mpeg @ 0x559f13013200] Invalid stream specifier: 0-map.########################
[mpeg @ 0x559f13013200] Invalid stream specifier: i:0-map.######################
[mpeg @ 0x559f13013200] Invalid stream specifier: 0-map.########################
[mpeg @ 0x559f13013200] Invalid stream specifier: i:0-map.######################
 



c'est la première fois que je vois ça :

i:0-map

Dernière modification par golgot200 (17-11-2019 12:30:42)

Hors ligne

#18 17-11-2019 12:31:41

golgot200
Membre
Distrib. : Archlinux 2018-02-03
Noyau : 5.11.12-arch1-1
(G)UI : Mate (Strict Minimum)
Inscription : 05-08-2007

Re : Ripper DVD

Tu m'as dis que c'était quoi comme dvd ???

Hors ligne

#19 17-11-2019 12:35:26

Trefix
Membre
Lieu : 48
Distrib. : buster 10.9 + bpo
Noyau : linux 4.19.0-16-amd64
(G)UI : Xfce4 4.12.5
Inscription : 15-02-2015

Re : Ripper DVD

Traviata et nous, Les films Pelléas, Naïve, 2012

Il est déjà mal pris en compte par le lecteur de salon. VLC le lit sur W$ mais pas sur ma bécane. Ceci dit, je n'exclue pas un problème de prise en compte du matériel par Buster...

.

Dernière modification par Trefix (17-11-2019 12:37:08)

Hors ligne

#20 17-11-2019 12:38:26

Trefix
Membre
Lieu : 48
Distrib. : buster 10.9 + bpo
Noyau : linux 4.19.0-16-amd64
(G)UI : Xfce4 4.12.5
Inscription : 15-02-2015

Re : Ripper DVD

Allez, c'est fini avec erreur :

subtitle ( sid ): 0 language: unknown
subtitle ( sid ): 0 language: unknown
subtitle ( sid ): 0 language: unknown
subtitle ( sid ): 0 language: unknown
subtitle ( sid ): 0 language: unknown
subtitle ( sid ): 0 language: unknown
subtitle ( sid ): 0 language: unknown
subtitle ( sid ): 0 language: unknown
subtitle ( sid ): 0 language: unknown
subtitle ( sid ): 0 language: unknown
subtitle ( sid ): 0 language: unknown
libdvdnav: Language 'en' not found, using 'fr' instead
libdvdnav: Menu Languages available: fr

dump: 590168064 bytes written to '/home/trefix/Bureau/ARCHIVAGE_DVD/DEFAULTPAL_SCN-UUID="426858dd00000000"/5-DEFAULTPAL_SCN.vob'.
Core dumped ;)
Restoring DVD speed... successful

Exiting... (End of file)
ffmpeg version 4.1.4-1~deb10u1 Copyright (c) 2000-2019 the FFmpeg developers
  built with gcc 8 (Debian 8.3.0-6)
  configuration: --prefix=/usr --extra-version='1~deb10u1' --toolchain=hardened --libdir=/usr/lib/x86_64-linux-gnu --incdir=/usr/include/x86_64-linux-gnu --arch=amd64 --enable-gpl --disable-stripping --enable-avresample --disable-filter=resample --enable-avisynth --enable-gnutls --enable-ladspa --enable-libaom --enable-libass --enable-libbluray --enable-libbs2b --enable-libcaca --enable-libcdio --enable-libcodec2 --enable-libflite --enable-libfontconfig --enable-libfreetype --enable-libfribidi --enable-libgme --enable-libgsm --enable-libjack --enable-libmp3lame --enable-libmysofa --enable-libopenjpeg --enable-libopenmpt --enable-libopus --enable-libpulse --enable-librsvg --enable-librubberband --enable-libshine --enable-libsnappy --enable-libsoxr --enable-libspeex --enable-libssh --enable-libtheora --enable-libtwolame --enable-libvidstab --enable-libvorbis --enable-libvpx --enable-libwavpack --enable-libwebp --enable-libx265 --enable-libxml2 --enable-libxvid --enable-libzmq --enable-libzvbi --enable-lv2 --enable-omx --enable-openal --enable-opengl --enable-sdl2 --enable-libdc1394 --enable-libdrm --enable-libiec61883 --enable-chromaprint --enable-frei0r --enable-libx264 --enable-shared
  libavutil      56. 22.100 / 56. 22.100
  libavcodec     58. 35.100 / 58. 35.100
  libavformat    58. 20.100 / 58. 20.100
  libavdevice    58.  5.100 / 58.  5.100
  libavfilter     7. 40.101 /  7. 40.101
  libavresample   4.  0.  0 /  4.  0.  0
  libswscale      5.  3.100 /  5.  3.100
  libswresample   3.  3.100 /  3.  3.100
  libpostproc    55.  3.100 / 55.  3.100
Input #0, mpeg, from '/home/trefix/Bureau/ARCHIVAGE_DVD/DEFAULTPAL_SCN-UUID="426858dd00000000"/5-DEFAULTPAL_SCN.vob':
  Duration: 00:12:58.16, start: 0.287267, bitrate: 6067 kb/s
    Stream #0:0[0x1bf]: Data: dvd_nav_packet
    Stream #0:1[0x1e0]: Video: mpeg2video (Main), 1 reference frame, yuv420p(tv, progressive, left), 720x576 [SAR 64:45 DAR 16:9], 25 fps, 25 tbr, 90k tbn, 50 tbc
    Stream #0:2[0x80]: Audio: ac3, 48000 Hz, stereo, fltp, 256 kb/s
[mpeg @ 0x55a0d39d1600] Invalid stream specifier: 0-map.
[mpeg @ 0x55a0d39d1600] Invalid stream specifier: i:0-map.
[mpeg @ 0x55a0d39d1600] Invalid stream specifier: 0-map.
[mpeg @ 0x55a0d39d1600] Invalid stream specifier: i:0-map.
[mpeg @ 0x55a0d39d1600] Invalid stream specifier: 0-map.
[mpeg @ 0x55a0d39d1600] Invalid stream specifier: i:0-map.
Stream map 'i:0-map' matches no streams.
To ignore this, add a trailing '?' to the map.
[AVIOContext @ 0x55a0d39da800] Statistics: 590418064 bytes read, 2 seeks
Encodage sur VOB avec AC3 ... OK
mkvmerge v31.0.0 ('Dolores In A Shoestand') 64-bit
Erreur : Le fichier « /home/trefix/Bureau/ARCHIVAGE_DVD/DEFAULTPAL_SCN-UUID="426858dd00000000"/5-DEFAULTPAL_SCN.mkv » ne peut pas être ouvert en lecture : open file error.
MEncoder 1.3.0 (Debian), built with gcc-8 (C) 2000-2016 MPlayer Team
libdvdnav: Using dvdnav version 6.0.0
libdvdnav: DVD Title: DEFAULTPAL_SCN
libdvdnav: DVD Serial Number: 426858dd
libdvdnav: DVD Title (Alternative):
libdvdnav: DVD disk reports itself with Region mask 0x00000000. Regions: 1 2 3 4 5 6 7 8

libdvdread: Attempting to retrieve all CSS keys
libdvdread: This can take a _long_ time, please be patient

libdvdread: Get key for /VIDEO_TS/VIDEO_TS.VOB at 0x0000013e
libdvdread: Elapsed time 0
libdvdread: Get key for /VIDEO_TS/VTS_01_0.VOB at 0x00004d63
libdvdread: Elapsed time 0
libdvdread: Get key for /VIDEO_TS/VTS_01_1.VOB at 0x00004d68
libdvdread: Elapsed time 0
libdvdread: Get key for /VIDEO_TS/VTS_02_0.VOB at 0x00296b45
libdvdread: Elapsed time 0
libdvdread: Get key for /VIDEO_TS/VTS_02_1.VOB at 0x00296b4a
libdvdread: Elapsed time 0
libdvdread: Get key for /VIDEO_TS/VTS_03_0.VOB at 0x0029ed7c
libdvdread: Elapsed time 0
libdvdread: Get key for /VIDEO_TS/VTS_03_1.VOB at 0x0029ed81
libdvdread: Elapsed time 0
libdvdread: Get key for /VIDEO_TS/VTS_04_0.VOB at 0x002a7341
libdvdread: Elapsed time 0
libdvdread: Get key for /VIDEO_TS/VTS_04_1.VOB at 0x002a7346
libdvdread: Elapsed time 0
libdvdread: Found 4 VTS's
libdvdread: Elapsed time 0
libdvdnav: Language 'en' not found, using 'fr' instead
libdvdnav: Menu Languages available: fr
audio stream: 0 format: ac3 (stereo) language: fr aid: 128.
subtitle ( sid ): 0 language: fr

INIT ERROR: couldn't get init pos New position not yet determined.
Remember to disable MPlayer's cache when playing dvdnav:// streams (adding -nocache to your command line)
success: format: 2  data: 0x0 - 0x0
DVDNAV, switched to title: 4
audio stream: 0 format: ac3 (stereo) language: fr aid: 128.
subtitle ( sid ): 0 language: fr

MPEG-PS file format detected.
VIDEO:  MPEG2  720x576  (aspect 3)  25.000 fps  7000.0 kbps (875.0 kbyte/s)
[V] filefmt:2  fourcc:0x10000002  size:720x576  fps:25.000  ftime:=0.0400
VobSub: Can't open IFO file
videocodec: framecopy (720x576 24bpp fourcc=10000002)
Writing header...
ODML: vprp aspect is 16:9.
Writing header...
ODML: vprp aspect is 16:9.
libdvdnav: Language 'en' not found, using 'fr' insteadb  A-V:0.000 [5691:0]
libdvdnav: Menu Languages available: fr
libdvdnav: Language 'en' not found, using 'fr' instead
libdvdnav: Menu Languages available: fr
libdvdnav: Language 'en' not found, using 'fr' instead
libdvdnav: Menu Languages available: fr

DVDNAV, switched to title: 4
audio stream: 0 format: ac3 (stereo) language: unknown aid: 128.
audio stream: 1 format: ac3 (stereo) language: unknown aid: 129.
audio stream: 2 format: ac3 (stereo) language: unknown aid: 130.
audio stream: 3 format: ac3 (stereo) language: unknown aid: 131.
audio stream: 4 format: ac3 (stereo) language: unknown aid: 132.
audio stream: 5 format: ac3 (stereo) language: unknown aid: 133.
audio stream: 6 format: ac3 (stereo) language: unknown aid: 134.
audio stream: 7 format: ac3 (stereo) language: unknown aid: 135.
subtitle ( sid ): 0 language: unknown
subtitle ( sid ): 0 language: unknown
subtitle ( sid ): 0 language: unknown
subtitle ( sid ): 0 language: unknown
subtitle ( sid ): 0 language: unknown
subtitle ( sid ): 0 language: unknown
subtitle ( sid ): 0 language: unknown
subtitle ( sid ): 0 language: unknown
subtitle ( sid ): 0 language: unknown
subtitle ( sid ): 0 language: unknown
subtitle ( sid ): 0 language: unknown
subtitle ( sid ): 0 language: unknown
subtitle ( sid ): 0 language: unknown
subtitle ( sid ): 0 language: unknown
subtitle ( sid ): 0 language: unknown
subtitle ( sid ): 0 language: unknown
subtitle ( sid ): 0 language: unknown
subtitle ( sid ): 0 language: unknown
subtitle ( sid ): 0 language: unknown
subtitle ( sid ): 0 language: unknown
subtitle ( sid ): 0 language: unknown
subtitle ( sid ): 0 language: unknown
subtitle ( sid ): 0 language: unknown
subtitle ( sid ): 0 language: unknown
subtitle ( sid ): 0 language: unknown
subtitle ( sid ): 0 language: unknown
subtitle ( sid ): 0 language: unknown
subtitle ( sid ): 0 language: unknown
subtitle ( sid ): 0 language: unknown
subtitle ( sid ): 0 language: unknown
subtitle ( sid ): 0 language: unknown
subtitle ( sid ): 0 language: unknown
libdvdnav: Language 'en' not found, using 'fr' instead
libdvdnav: Menu Languages available: fr

Writing index...
Writing header...
ODML: vprp aspect is 16:9.

Video stream: 5691.029 kbit/s  (711378 B/s)  size: 553594888 bytes  778.200 secs  19455 frames
mkvmerge v31.0.0 ('Dolores In A Shoestand') 64-bit
Erreur : Le fichier « /home/trefix/Bureau/ARCHIVAGE_DVD/DEFAULTPAL_SCN-UUID="426858dd00000000"/5-DEFAULTPAL_SCN-[OUT_CHAPTERS].mkv » ne peut pas être ouvert en lecture : open file error.
MPlayer 1.3.0 (Debian), built with gcc-8 (C) 2000-2016 MPlayer Team
Can't open joystick device /dev/input/js0: No such file or directory
Can't init input joystick
do_connect: could not connect to socket
connect: No such file or directory
Failed to open LIRC support. You will not be able to use your remote control.

Playing dvdnav://6.
Limiting DVD speed to 16200KB/s... successful
libdvdnav: Using dvdnav version 6.0.0
libdvdnav: DVD Title: DEFAULTPAL_SCN
libdvdnav: DVD Serial Number: 426858dd
libdvdnav: DVD Title (Alternative):
libdvdnav: DVD disk reports itself with Region mask 0x00000000. Regions: 1 2 3 4 5 6 7 8

libdvdread: Attempting to retrieve all CSS keys
libdvdread: This can take a _long_ time, please be patient

libdvdread: Get key for /VIDEO_TS/VIDEO_TS.VOB at 0x0000013e
libdvdread: Elapsed time 0
libdvdread: Get key for /VIDEO_TS/VTS_01_0.VOB at 0x00004d63
libdvdread: Elapsed time 0
libdvdread: Get key for /VIDEO_TS/VTS_01_1.VOB at 0x00004d68
libdvdread: Elapsed time 0
libdvdread: Get key for /VIDEO_TS/VTS_02_0.VOB at 0x00296b45
libdvdread: Elapsed time 0
libdvdread: Get key for /VIDEO_TS/VTS_02_1.VOB at 0x00296b4a
libdvdread: Elapsed time 0
libdvdread: Get key for /VIDEO_TS/VTS_03_0.VOB at 0x0029ed7c
libdvdread: Elapsed time 0
libdvdread: Get key for /VIDEO_TS/VTS_03_1.VOB at 0x0029ed81
libdvdread: Elapsed time 0
libdvdread: Get key for /VIDEO_TS/VTS_04_0.VOB at 0x002a7341
libdvdread: Elapsed time 0
libdvdread: Get key for /VIDEO_TS/VTS_04_1.VOB at 0x002a7346
libdvdread: Elapsed time 0
libdvdread: Found 4 VTS's
libdvdread: Elapsed time 0
libdvdnav: Language 'en' not found, using 'fr' instead
libdvdnav: Menu Languages available: fr
audio stream: 0 format: ac3 (stereo) language: fr aid: 128.
subtitle ( sid ): 0 language: fr

INIT ERROR: couldn't get init pos New position not yet determined.
Remember to disable MPlayer's cache when playing dvdnav:// streams (adding -nocache to your command line)
DVDNAV, switched to title: 4
audio stream: 0 format: ac3 (stereo) language: fr aid: 128.
subtitle ( sid ): 0 language: fr
libdvdnav: Language 'en' not found, using 'fr' instead
libdvdnav: Menu Languages available: fr
libdvdnav: Language 'en' not found, using 'fr' instead
libdvdnav: Menu Languages available: fr
libdvdnav: Language 'en' not found, using 'fr' instead
libdvdnav: Menu Languages available: fr

DVDNAV, switched to title: 4
audio stream: 0 format: ac3 (stereo) language: unknown aid: 128.
audio stream: 1 format: ac3 (stereo) language: unknown aid: 129.
audio stream: 2 format: ac3 (stereo) language: unknown aid: 130.
audio stream: 3 format: ac3 (stereo) language: unknown aid: 131.
audio stream: 4 format: ac3 (stereo) language: unknown aid: 132.
audio stream: 5 format: ac3 (stereo) language: unknown aid: 133.
audio stream: 6 format: ac3 (stereo) language: unknown aid: 134.
audio stream: 7 format: ac3 (stereo) language: unknown aid: 135.
subtitle ( sid ): 0 language: unknown
subtitle ( sid ): 0 language: unknown
subtitle ( sid ): 0 language: unknown
subtitle ( sid ): 0 language: unknown
subtitle ( sid ): 0 language: unknown
subtitle ( sid ): 0 language: unknown
subtitle ( sid ): 0 language: unknown
subtitle ( sid ): 0 language: unknown
subtitle ( sid ): 0 language: unknown
subtitle ( sid ): 0 language: unknown
subtitle ( sid ): 0 language: unknown
subtitle ( sid ): 0 language: unknown
subtitle ( sid ): 0 language: unknown
subtitle ( sid ): 0 language: unknown
subtitle ( sid ): 0 language: unknown
subtitle ( sid ): 0 language: unknown
subtitle ( sid ): 0 language: unknown
subtitle ( sid ): 0 language: unknown
subtitle ( sid ): 0 language: unknown
subtitle ( sid ): 0 language: unknown
subtitle ( sid ): 0 language: unknown
subtitle ( sid ): 0 language: unknown
subtitle ( sid ): 0 language: unknown
subtitle ( sid ): 0 language: unknown
subtitle ( sid ): 0 language: unknown
subtitle ( sid ): 0 language: unknown
subtitle ( sid ): 0 language: unknown
subtitle ( sid ): 0 language: unknown
subtitle ( sid ): 0 language: unknown
subtitle ( sid ): 0 language: unknown
subtitle ( sid ): 0 language: unknown
subtitle ( sid ): 0 language: unknown
libdvdnav: Language 'en' not found, using 'fr' instead
libdvdnav: Menu Languages available: fr

dump: 519514112 bytes written to '/home/trefix/Bureau/ARCHIVAGE_DVD/DEFAULTPAL_SCN-UUID="426858dd00000000"/6-DEFAULTPAL_SCN.vob'.
Core dumped ;)
Restoring DVD speed... successful

Exiting... (End of file)
ffmpeg version 4.1.4-1~deb10u1 Copyright (c) 2000-2019 the FFmpeg developers
  built with gcc 8 (Debian 8.3.0-6)
  configuration: --prefix=/usr --extra-version='1~deb10u1' --toolchain=hardened --libdir=/usr/lib/x86_64-linux-gnu --incdir=/usr/include/x86_64-linux-gnu --arch=amd64 --enable-gpl --disable-stripping --enable-avresample --disable-filter=resample --enable-avisynth --enable-gnutls --enable-ladspa --enable-libaom --enable-libass --enable-libbluray --enable-libbs2b --enable-libcaca --enable-libcdio --enable-libcodec2 --enable-libflite --enable-libfontconfig --enable-libfreetype --enable-libfribidi --enable-libgme --enable-libgsm --enable-libjack --enable-libmp3lame --enable-libmysofa --enable-libopenjpeg --enable-libopenmpt --enable-libopus --enable-libpulse --enable-librsvg --enable-librubberband --enable-libshine --enable-libsnappy --enable-libsoxr --enable-libspeex --enable-libssh --enable-libtheora --enable-libtwolame --enable-libvidstab --enable-libvorbis --enable-libvpx --enable-libwavpack --enable-libwebp --enable-libx265 --enable-libxml2 --enable-libxvid --enable-libzmq --enable-libzvbi --enable-lv2 --enable-omx --enable-openal --enable-opengl --enable-sdl2 --enable-libdc1394 --enable-libdrm --enable-libiec61883 --enable-chromaprint --enable-frei0r --enable-libx264 --enable-shared
  libavutil      56. 22.100 / 56. 22.100
  libavcodec     58. 35.100 / 58. 35.100
  libavformat    58. 20.100 / 58. 20.100
  libavdevice    58.  5.100 / 58.  5.100
  libavfilter     7. 40.101 /  7. 40.101
  libavresample   4.  0.  0 /  4.  0.  0
  libswscale      5.  3.100 /  5.  3.100
  libswresample   3.  3.100 /  3.  3.100
  libpostproc    55.  3.100 / 55.  3.100
Input #0, mpeg, from '/home/trefix/Bureau/ARCHIVAGE_DVD/DEFAULTPAL_SCN-UUID="426858dd00000000"/6-DEFAULTPAL_SCN.vob':
  Duration: 00:11:25.08, start: 0.287267, bitrate: 6066 kb/s
    Stream #0:0[0x1bf]: Data: dvd_nav_packet
    Stream #0:1[0x1e0]: Video: mpeg2video (Main), 1 reference frame, yuv420p(tv, progressive, left), 720x576 [SAR 64:45 DAR 16:9], 25 fps, 25 tbr, 90k tbn, 50 tbc
    Stream #0:2[0x80]: Audio: ac3, 48000 Hz, stereo, fltp, 256 kb/s
[mpeg @ 0x560eae1ec600] Invalid stream specifier: 0-map.
[mpeg @ 0x560eae1ec600] Invalid stream specifier: i:0-map.
[mpeg @ 0x560eae1ec600] Invalid stream specifier: 0-map.
[mpeg @ 0x560eae1ec600] Invalid stream specifier: i:0-map.
[mpeg @ 0x560eae1ec600] Invalid stream specifier: 0-map.
[mpeg @ 0x560eae1ec600] Invalid stream specifier: i:0-map.
Stream map 'i:0-map' matches no streams.
To ignore this, add a trailing '?' to the map.
[AVIOContext @ 0x560eae1f5800] Statistics: 519764112 bytes read, 2 seeks
Encodage sur VOB avec AC3 ... OK
mkvmerge v31.0.0 ('Dolores In A Shoestand') 64-bit
Erreur : Le fichier « /home/trefix/Bureau/ARCHIVAGE_DVD/DEFAULTPAL_SCN-UUID="426858dd00000000"/6-DEFAULTPAL_SCN.mkv » ne peut pas être ouvert en lecture : open file error.
MEncoder 1.3.0 (Debian), built with gcc-8 (C) 2000-2016 MPlayer Team
libdvdnav: Using dvdnav version 6.0.0
libdvdnav: DVD Title: DEFAULTPAL_SCN
libdvdnav: DVD Serial Number: 426858dd
libdvdnav: DVD Title (Alternative):
libdvdnav: DVD disk reports itself with Region mask 0x00000000. Regions: 1 2 3 4 5 6 7 8

libdvdread: Attempting to retrieve all CSS keys
libdvdread: This can take a _long_ time, please be patient

libdvdread: Get key for /VIDEO_TS/VIDEO_TS.VOB at 0x0000013e
libdvdread: Elapsed time 0
libdvdread: Get key for /VIDEO_TS/VTS_01_0.VOB at 0x00004d63
libdvdread: Elapsed time 0
libdvdread: Get key for /VIDEO_TS/VTS_01_1.VOB at 0x00004d68
libdvdread: Elapsed time 0
libdvdread: Get key for /VIDEO_TS/VTS_02_0.VOB at 0x00296b45
libdvdread: Elapsed time 0
libdvdread: Get key for /VIDEO_TS/VTS_02_1.VOB at 0x00296b4a
libdvdread: Elapsed time 0
libdvdread: Get key for /VIDEO_TS/VTS_03_0.VOB at 0x0029ed7c
libdvdread: Elapsed time 0
libdvdread: Get key for /VIDEO_TS/VTS_03_1.VOB at 0x0029ed81
libdvdread: Elapsed time 0
libdvdread: Get key for /VIDEO_TS/VTS_04_0.VOB at 0x002a7341
libdvdread: Elapsed time 0
libdvdread: Get key for /VIDEO_TS/VTS_04_1.VOB at 0x002a7346
libdvdread: Elapsed time 0
libdvdread: Found 4 VTS's
libdvdread: Elapsed time 0
libdvdnav: Language 'en' not found, using 'fr' instead
libdvdnav: Menu Languages available: fr
audio stream: 0 format: ac3 (stereo) language: fr aid: 128.
subtitle ( sid ): 0 language: fr

INIT ERROR: couldn't get init pos New position not yet determined.
Remember to disable MPlayer's cache when playing dvdnav:// streams (adding -nocache to your command line)
success: format: 2  data: 0x0 - 0x0
DVDNAV, switched to title: 4
audio stream: 0 format: ac3 (stereo) language: fr aid: 128.
subtitle ( sid ): 0 language: fr

MPEG-PS file format detected.
VIDEO:  MPEG2  720x576  (aspect 3)  25.000 fps  7000.0 kbps (875.0 kbyte/s)
[V] filefmt:2  fourcc:0x10000002  size:720x576  fps:25.000  ftime:=0.0400
VobSub: Can't open IFO file
videocodec: framecopy (720x576 24bpp fourcc=10000002)
Writing header...
ODML: vprp aspect is 16:9.
Writing header...
ODML: vprp aspect is 16:9.
libdvdnav: Language 'en' not found, using 'fr' insteadb  A-V:0.000 [5690:0]
libdvdnav: Menu Languages available: fr
libdvdnav: Language 'en' not found, using 'fr' instead
libdvdnav: Menu Languages available: fr
libdvdnav: Language 'en' not found, using 'fr' instead
libdvdnav: Menu Languages available: fr

DVDNAV, switched to title: 4
audio stream: 0 format: ac3 (stereo) language: unknown aid: 128.
audio stream: 1 format: ac3 (stereo) language: unknown aid: 129.
audio stream: 2 format: ac3 (stereo) language: unknown aid: 130.
audio stream: 3 format: ac3 (stereo) language: unknown aid: 131.
audio stream: 4 format: ac3 (stereo) language: unknown aid: 132.
audio stream: 5 format: ac3 (stereo) language: unknown aid: 133.
audio stream: 6 format: ac3 (stereo) language: unknown aid: 134.
audio stream: 7 format: ac3 (stereo) language: unknown aid: 135.
subtitle ( sid ): 0 language: unknown
subtitle ( sid ): 0 language: unknown
subtitle ( sid ): 0 language: unknown
subtitle ( sid ): 0 language: unknown
subtitle ( sid ): 0 language: unknown
subtitle ( sid ): 0 language: unknown
subtitle ( sid ): 0 language: unknown
subtitle ( sid ): 0 language: unknown
subtitle ( sid ): 0 language: unknown
subtitle ( sid ): 0 language: unknown
subtitle ( sid ): 0 language: unknown
subtitle ( sid ): 0 language: unknown
subtitle ( sid ): 0 language: unknown
subtitle ( sid ): 0 language: unknown
subtitle ( sid ): 0 language: unknown
subtitle ( sid ): 0 language: unknown
subtitle ( sid ): 0 language: unknown
subtitle ( sid ): 0 language: unknown
subtitle ( sid ): 0 language: unknown
subtitle ( sid ): 0 language: unknown
subtitle ( sid ): 0 language: unknown
subtitle ( sid ): 0 language: unknown
subtitle ( sid ): 0 language: unknown
subtitle ( sid ): 0 language: unknown
subtitle ( sid ): 0 language: unknown
subtitle ( sid ): 0 language: unknown
subtitle ( sid ): 0 language: unknown
subtitle ( sid ): 0 language: unknown
subtitle ( sid ): 0 language: unknown
subtitle ( sid ): 0 language: unknown
subtitle ( sid ): 0 language: unknown
subtitle ( sid ): 0 language: unknown
libdvdnav: Language 'en' not found, using 'fr' instead
libdvdnav: Menu Languages available: fr

Writing index...
Writing header...
ODML: vprp aspect is 16:9.

Video stream: 5690.658 kbit/s  (711332 B/s)  size: 487347958 bytes  685.120 secs  17128 frames
mkvmerge v31.0.0 ('Dolores In A Shoestand') 64-bit
Erreur : Le fichier « /home/trefix/Bureau/ARCHIVAGE_DVD/DEFAULTPAL_SCN-UUID="426858dd00000000"/6-DEFAULTPAL_SCN-[OUT_CHAPTERS].mkv » ne peut pas être ouvert en lecture : open file error.
MPlayer 1.3.0 (Debian), built with gcc-8 (C) 2000-2016 MPlayer Team
Can't open joystick device /dev/input/js0: No such file or directory
Can't init input joystick
do_connect: could not connect to socket
connect: No such file or directory
Failed to open LIRC support. You will not be able to use your remote control.

Playing dvdnav://7.
Limiting DVD speed to 16200KB/s... successful
libdvdnav: Using dvdnav version 6.0.0
libdvdnav: DVD Title: DEFAULTPAL_SCN
libdvdnav: DVD Serial Number: 426858dd
libdvdnav: DVD Title (Alternative):
libdvdnav: DVD disk reports itself with Region mask 0x00000000. Regions: 1 2 3 4 5 6 7 8

libdvdread: Attempting to retrieve all CSS keys
libdvdread: This can take a _long_ time, please be patient

libdvdread: Get key for /VIDEO_TS/VIDEO_TS.VOB at 0x0000013e
libdvdread: Elapsed time 0
libdvdread: Get key for /VIDEO_TS/VTS_01_0.VOB at 0x00004d63
libdvdread: Elapsed time 0
libdvdread: Get key for /VIDEO_TS/VTS_01_1.VOB at 0x00004d68
libdvdread: Elapsed time 0
libdvdread: Get key for /VIDEO_TS/VTS_02_0.VOB at 0x00296b45
libdvdread: Elapsed time 0
libdvdread: Get key for /VIDEO_TS/VTS_02_1.VOB at 0x00296b4a
libdvdread: Elapsed time 0
libdvdread: Get key for /VIDEO_TS/VTS_03_0.VOB at 0x0029ed7c
libdvdread: Elapsed time 0
libdvdread: Get key for /VIDEO_TS/VTS_03_1.VOB at 0x0029ed81
libdvdread: Elapsed time 0
libdvdread: Get key for /VIDEO_TS/VTS_04_0.VOB at 0x002a7341
libdvdread: Elapsed time 0
libdvdread: Get key for /VIDEO_TS/VTS_04_1.VOB at 0x002a7346
libdvdread: Elapsed time 0
libdvdread: Found 4 VTS's
libdvdread: Elapsed time 0
libdvdnav: Language 'en' not found, using 'fr' instead
libdvdnav: Menu Languages available: fr
audio stream: 0 format: ac3 (stereo) language: fr aid: 128.
subtitle ( sid ): 0 language: fr

INIT ERROR: couldn't get init pos New position not yet determined.
Remember to disable MPlayer's cache when playing dvdnav:// streams (adding -nocache to your command line)
DVDNAV, switched to title: 4
audio stream: 0 format: ac3 (stereo) language: fr aid: 128.
subtitle ( sid ): 0 language: fr
libdvdnav: Language 'en' not found, using 'fr' instead
libdvdnav: Menu Languages available: fr
libdvdnav: Language 'en' not found, using 'fr' instead
libdvdnav: Menu Languages available: fr
libdvdnav: Language 'en' not found, using 'fr' instead
libdvdnav: Menu Languages available: fr

DVDNAV, switched to title: 4
audio stream: 0 format: ac3 (stereo) language: unknown aid: 128.
audio stream: 1 format: ac3 (stereo) language: unknown aid: 129.
audio stream: 2 format: ac3 (stereo) language: unknown aid: 130.
audio stream: 3 format: ac3 (stereo) language: unknown aid: 131.
audio stream: 4 format: ac3 (stereo) language: unknown aid: 132.
audio stream: 5 format: ac3 (stereo) language: unknown aid: 133.
audio stream: 6 format: ac3 (stereo) language: unknown aid: 134.
audio stream: 7 format: ac3 (stereo) language: unknown aid: 135.
subtitle ( sid ): 0 language: unknown
subtitle ( sid ): 0 language: unknown
subtitle ( sid ): 0 language: unknown
subtitle ( sid ): 0 language: unknown
subtitle ( sid ): 0 language: unknown
subtitle ( sid ): 0 language: unknown
subtitle ( sid ): 0 language: unknown
subtitle ( sid ): 0 language: unknown
subtitle ( sid ): 0 language: unknown
subtitle ( sid ): 0 language: unknown
subtitle ( sid ): 0 language: unknown
subtitle ( sid ): 0 language: unknown
subtitle ( sid ): 0 language: unknown
subtitle ( sid ): 0 language: unknown
subtitle ( sid ): 0 language: unknown
subtitle ( sid ): 0 language: unknown
subtitle ( sid ): 0 language: unknown
subtitle ( sid ): 0 language: unknown
subtitle ( sid ): 0 language: unknown
subtitle ( sid ): 0 language: unknown
subtitle ( sid ): 0 language: unknown
subtitle ( sid ): 0 language: unknown
subtitle ( sid ): 0 language: unknown
subtitle ( sid ): 0 language: unknown
subtitle ( sid ): 0 language: unknown
subtitle ( sid ): 0 language: unknown
subtitle ( sid ): 0 language: unknown
subtitle ( sid ): 0 language: unknown
subtitle ( sid ): 0 language: unknown
subtitle ( sid ): 0 language: unknown
subtitle ( sid ): 0 language: unknown
subtitle ( sid ): 0 language: unknown
libdvdnav: Language 'en' not found, using 'fr' instead
libdvdnav: Menu Languages available: fr

dump: 342122496 bytes written to '/home/trefix/Bureau/ARCHIVAGE_DVD/DEFAULTPAL_SCN-UUID="426858dd00000000"/7-DEFAULTPAL_SCN.vob'.
Core dumped ;)
Restoring DVD speed... successful

Exiting... (End of file)
ffmpeg version 4.1.4-1~deb10u1 Copyright (c) 2000-2019 the FFmpeg developers
  built with gcc 8 (Debian 8.3.0-6)
  configuration: --prefix=/usr --extra-version='1~deb10u1' --toolchain=hardened --libdir=/usr/lib/x86_64-linux-gnu --incdir=/usr/include/x86_64-linux-gnu --arch=amd64 --enable-gpl --disable-stripping --enable-avresample --disable-filter=resample --enable-avisynth --enable-gnutls --enable-ladspa --enable-libaom --enable-libass --enable-libbluray --enable-libbs2b --enable-libcaca --enable-libcdio --enable-libcodec2 --enable-libflite --enable-libfontconfig --enable-libfreetype --enable-libfribidi --enable-libgme --enable-libgsm --enable-libjack --enable-libmp3lame --enable-libmysofa --enable-libopenjpeg --enable-libopenmpt --enable-libopus --enable-libpulse --enable-librsvg --enable-librubberband --enable-libshine --enable-libsnappy --enable-libsoxr --enable-libspeex --enable-libssh --enable-libtheora --enable-libtwolame --enable-libvidstab --enable-libvorbis --enable-libvpx --enable-libwavpack --enable-libwebp --enable-libx265 --enable-libxml2 --enable-libxvid --enable-libzmq --enable-libzvbi --enable-lv2 --enable-omx --enable-openal --enable-opengl --enable-sdl2 --enable-libdc1394 --enable-libdrm --enable-libiec61883 --enable-chromaprint --enable-frei0r --enable-libx264 --enable-shared
  libavutil      56. 22.100 / 56. 22.100
  libavcodec     58. 35.100 / 58. 35.100
  libavformat    58. 20.100 / 58. 20.100
  libavdevice    58.  5.100 / 58.  5.100
  libavfilter     7. 40.101 /  7. 40.101
  libavresample   4.  0.  0 /  4.  0.  0
  libswscale      5.  3.100 /  5.  3.100
  libswresample   3.  3.100 /  3.  3.100
  libpostproc    55.  3.100 / 55.  3.100
Input #0, mpeg, from '/home/trefix/Bureau/ARCHIVAGE_DVD/DEFAULTPAL_SCN-UUID="426858dd00000000"/7-DEFAULTPAL_SCN.vob':
  Duration: 00:07:29.98, start: 0.287267, bitrate: 6082 kb/s
    Stream #0:0[0x1bf]: Data: dvd_nav_packet
    Stream #0:1[0x1e0]: Video: mpeg2video (Main), 1 reference frame, yuv420p(tv, progressive, left), 720x576 [SAR 64:45 DAR 16:9], 25 fps, 25 tbr, 90k tbn, 50 tbc
    Stream #0:2[0x80]: Audio: ac3, 48000 Hz, stereo, fltp, 256 kb/s
    Stream #0:3[0x20]: Subtitle: dvd_subtitle
    Stream #0:4[0x21]: Subtitle: dvd_subtitle
[mpeg @ 0x56367ce30600] Invalid stream specifier: 0-map.
[mpeg @ 0x56367ce30600] Invalid stream specifier: i:0-map.
[mpeg @ 0x56367ce30600] Invalid stream specifier: 0-map.
[mpeg @ 0x56367ce30600] Invalid stream specifier: i:0-map.
[mpeg @ 0x56367ce30600] Invalid stream specifier: 0-map.
[mpeg @ 0x56367ce30600] Invalid stream specifier: i:0-map.
[mpeg @ 0x56367ce30600] Invalid stream specifier: 0-map.
[mpeg @ 0x56367ce30600] Invalid stream specifier: i:0-map.
[mpeg @ 0x56367ce30600] Invalid stream specifier: 0-map.
[mpeg @ 0x56367ce30600] Invalid stream specifier: i:0-map.
Stream map 'i:0-map' matches no streams.
To ignore this, add a trailing '?' to the map.
[AVIOContext @ 0x56367ce39800] Statistics: 342372496 bytes read, 2 seeks
Encodage sur VOB avec AC3 ... OK
mkvmerge v31.0.0 ('Dolores In A Shoestand') 64-bit
Erreur : Le fichier « /home/trefix/Bureau/ARCHIVAGE_DVD/DEFAULTPAL_SCN-UUID="426858dd00000000"/7-DEFAULTPAL_SCN.mkv » ne peut pas être ouvert en lecture : open file error.
MEncoder 1.3.0 (Debian), built with gcc-8 (C) 2000-2016 MPlayer Team
libdvdnav: Using dvdnav version 6.0.0
libdvdnav: DVD Title: DEFAULTPAL_SCN
libdvdnav: DVD Serial Number: 426858dd
libdvdnav: DVD Title (Alternative):
libdvdnav: DVD disk reports itself with Region mask 0x00000000. Regions: 1 2 3 4 5 6 7 8

libdvdread: Attempting to retrieve all CSS keys
libdvdread: This can take a _long_ time, please be patient

libdvdread: Get key for /VIDEO_TS/VIDEO_TS.VOB at 0x0000013e
libdvdread: Elapsed time 0
libdvdread: Get key for /VIDEO_TS/VTS_01_0.VOB at 0x00004d63
libdvdread: Elapsed time 0
libdvdread: Get key for /VIDEO_TS/VTS_01_1.VOB at 0x00004d68
libdvdread: Elapsed time 0
libdvdread: Get key for /VIDEO_TS/VTS_02_0.VOB at 0x00296b45
libdvdread: Elapsed time 0
libdvdread: Get key for /VIDEO_TS/VTS_02_1.VOB at 0x00296b4a
libdvdread: Elapsed time 0
libdvdread: Get key for /VIDEO_TS/VTS_03_0.VOB at 0x0029ed7c
libdvdread: Elapsed time 0
libdvdread: Get key for /VIDEO_TS/VTS_03_1.VOB at 0x0029ed81
libdvdread: Elapsed time 0
libdvdread: Get key for /VIDEO_TS/VTS_04_0.VOB at 0x002a7341
libdvdread: Elapsed time 0
libdvdread: Get key for /VIDEO_TS/VTS_04_1.VOB at 0x002a7346
libdvdread: Elapsed time 0
libdvdread: Found 4 VTS's
libdvdread: Elapsed time 0
libdvdnav: Language 'en' not found, using 'fr' instead
libdvdnav: Menu Languages available: fr
audio stream: 0 format: ac3 (stereo) language: fr aid: 128.
subtitle ( sid ): 0 language: fr

INIT ERROR: couldn't get init pos New position not yet determined.
Remember to disable MPlayer's cache when playing dvdnav:// streams (adding -nocache to your command line)
success: format: 2  data: 0x0 - 0x0
DVDNAV, switched to title: 4
audio stream: 0 format: ac3 (stereo) language: fr aid: 128.
subtitle ( sid ): 0 language: fr

MPEG-PS file format detected.
VIDEO:  MPEG2  720x576  (aspect 3)  25.000 fps  7000.0 kbps (875.0 kbyte/s)
[V] filefmt:2  fourcc:0x10000002  size:720x576  fps:25.000  ftime:=0.0400
VobSub: Can't open IFO file
videocodec: framecopy (720x576 24bpp fourcc=10000002)
Writing header...
ODML: vprp aspect is 16:9.
Writing header...
ODML: vprp aspect is 16:9.
libdvdnav: Language 'en' not found, using 'fr' insteadb  A-V:0.000 [5685:0]
libdvdnav: Menu Languages available: fr
libdvdnav: Language 'en' not found, using 'fr' instead
libdvdnav: Menu Languages available: fr
libdvdnav: Language 'en' not found, using 'fr' instead
libdvdnav: Menu Languages available: fr

DVDNAV, switched to title: 4
audio stream: 0 format: ac3 (stereo) language: unknown aid: 128.
audio stream: 1 format: ac3 (stereo) language: unknown aid: 129.
audio stream: 2 format: ac3 (stereo) language: unknown aid: 130.
audio stream: 3 format: ac3 (stereo) language: unknown aid: 131.
audio stream: 4 format: ac3 (stereo) language: unknown aid: 132.
audio stream: 5 format: ac3 (stereo) language: unknown aid: 133.
audio stream: 6 format: ac3 (stereo) language: unknown aid: 134.
audio stream: 7 format: ac3 (stereo) language: unknown aid: 135.
subtitle ( sid ): 0 language: unknown
subtitle ( sid ): 0 language: unknown
subtitle ( sid ): 0 language: unknown
subtitle ( sid ): 0 language: unknown
subtitle ( sid ): 0 language: unknown
subtitle ( sid ): 0 language: unknown
subtitle ( sid ): 0 language: unknown
subtitle ( sid ): 0 language: unknown
subtitle ( sid ): 0 language: unknown
subtitle ( sid ): 0 language: unknown
subtitle ( sid ): 0 language: unknown
subtitle ( sid ): 0 language: unknown
subtitle ( sid ): 0 language: unknown
subtitle ( sid ): 0 language: unknown
subtitle ( sid ): 0 language: unknown
subtitle ( sid ): 0 language: unknown
subtitle ( sid ): 0 language: unknown
subtitle ( sid ): 0 language: unknown
subtitle ( sid ): 0 language: unknown
subtitle ( sid ): 0 language: unknown
subtitle ( sid ): 0 language: unknown
subtitle ( sid ): 0 language: unknown
subtitle ( sid ): 0 language: unknown
subtitle ( sid ): 0 language: unknown
subtitle ( sid ): 0 language: unknown
subtitle ( sid ): 0 language: unknown
subtitle ( sid ): 0 language: unknown
subtitle ( sid ): 0 language: unknown
subtitle ( sid ): 0 language: unknown
subtitle ( sid ): 0 language: unknown
subtitle ( sid ): 0 language: unknown
subtitle ( sid ): 0 language: unknown
libdvdnav: Language 'en' not found, using 'fr' instead
libdvdnav: Menu Languages available: fr

Writing index...
Writing header...
ODML: vprp aspect is 16:9.

Video stream: 5685.331 kbit/s  (710666 B/s)  size: 319856711 bytes  450.080 secs  11252 frames
mkvmerge v31.0.0 ('Dolores In A Shoestand') 64-bit
Erreur : Le fichier « /home/trefix/Bureau/ARCHIVAGE_DVD/DEFAULTPAL_SCN-UUID="426858dd00000000"/7-DEFAULTPAL_SCN-[OUT_CHAPTERS].mkv » ne peut pas être ouvert en lecture : open file error.
MPlayer 1.3.0 (Debian), built with gcc-8 (C) 2000-2016 MPlayer Team
Can't open joystick device /dev/input/js0: No such file or directory
Can't init input joystick
do_connect: could not connect to socket
connect: No such file or directory
Failed to open LIRC support. You will not be able to use your remote control.

Playing dvdnav://8.
Limiting DVD speed to 16200KB/s... successful
libdvdnav: Using dvdnav version 6.0.0
libdvdnav: DVD Title: DEFAULTPAL_SCN
libdvdnav: DVD Serial Number: 426858dd
libdvdnav: DVD Title (Alternative):
libdvdnav: DVD disk reports itself with Region mask 0x00000000. Regions: 1 2 3 4 5 6 7 8

libdvdread: Attempting to retrieve all CSS keys
libdvdread: This can take a _long_ time, please be patient

libdvdread: Get key for /VIDEO_TS/VIDEO_TS.VOB at 0x0000013e
libdvdread: Elapsed time 0
libdvdread: Get key for /VIDEO_TS/VTS_01_0.VOB at 0x00004d63
libdvdread: Elapsed time 0
libdvdread: Get key for /VIDEO_TS/VTS_01_1.VOB at 0x00004d68
libdvdread: Elapsed time 0
libdvdread: Get key for /VIDEO_TS/VTS_02_0.VOB at 0x00296b45
libdvdread: Elapsed time 0
libdvdread: Get key for /VIDEO_TS/VTS_02_1.VOB at 0x00296b4a
libdvdread: Elapsed time 0
libdvdread: Get key for /VIDEO_TS/VTS_03_0.VOB at 0x0029ed7c
libdvdread: Elapsed time 0
libdvdread: Get key for /VIDEO_TS/VTS_03_1.VOB at 0x0029ed81
libdvdread: Elapsed time 0
libdvdread: Get key for /VIDEO_TS/VTS_04_0.VOB at 0x002a7341
libdvdread: Elapsed time 0
libdvdread: Get key for /VIDEO_TS/VTS_04_1.VOB at 0x002a7346
libdvdread: Elapsed time 0
libdvdread: Found 4 VTS's
libdvdread: Elapsed time 0
libdvdnav: Language 'en' not found, using 'fr' instead
libdvdnav: Menu Languages available: fr
audio stream: 0 format: ac3 (stereo) language: fr aid: 128.
subtitle ( sid ): 0 language: fr

INIT ERROR: couldn't get init pos New position not yet determined.
Remember to disable MPlayer's cache when playing dvdnav:// streams (adding -nocache to your command line)
DVDNAV, switched to title: 4
audio stream: 0 format: ac3 (stereo) language: fr aid: 128.
subtitle ( sid ): 0 language: fr
libdvdnav: Language 'en' not found, using 'fr' instead
libdvdnav: Menu Languages available: fr
libdvdnav: Language 'en' not found, using 'fr' instead
libdvdnav: Menu Languages available: fr
libdvdnav: Language 'en' not found, using 'fr' instead
libdvdnav: Menu Languages available: fr

DVDNAV, switched to title: 4
audio stream: 0 format: ac3 (stereo) language: unknown aid: 128.
audio stream: 1 format: ac3 (stereo) language: unknown aid: 129.
audio stream: 2 format: ac3 (stereo) language: unknown aid: 130.
audio stream: 3 format: ac3 (stereo) language: unknown aid: 131.
audio stream: 4 format: ac3 (stereo) language: unknown aid: 132.
audio stream: 5 format: ac3 (stereo) language: unknown aid: 133.
audio stream: 6 format: ac3 (stereo) language: unknown aid: 134.
audio stream: 7 format: ac3 (stereo) language: unknown aid: 135.
subtitle ( sid ): 0 language: unknown
subtitle ( sid ): 0 language: unknown
subtitle ( sid ): 0 language: unknown
subtitle ( sid ): 0 language: unknown
subtitle ( sid ): 0 language: unknown
subtitle ( sid ): 0 language: unknown
subtitle ( sid ): 0 language: unknown
subtitle ( sid ): 0 language: unknown
subtitle ( sid ): 0 language: unknown
subtitle ( sid ): 0 language: unknown
subtitle ( sid ): 0 language: unknown
subtitle ( sid ): 0 language: unknown
subtitle ( sid ): 0 language: unknown
subtitle ( sid ): 0 language: unknown
subtitle ( sid ): 0 language: unknown
subtitle ( sid ): 0 language: unknown
subtitle ( sid ): 0 language: unknown
subtitle ( sid ): 0 language: unknown
subtitle ( sid ): 0 language: unknown
subtitle ( sid ): 0 language: unknown
subtitle ( sid ): 0 language: unknown
subtitle ( sid ): 0 language: unknown
subtitle ( sid ): 0 language: unknown
subtitle ( sid ): 0 language: unknown
subtitle ( sid ): 0 language: unknown
subtitle ( sid ): 0 language: unknown
subtitle ( sid ): 0 language: unknown
subtitle ( sid ): 0 language: unknown
subtitle ( sid ): 0 language: unknown
subtitle ( sid ): 0 language: unknown
subtitle ( sid ): 0 language: unknown
subtitle ( sid ): 0 language: unknown
libdvdnav: Language 'en' not found, using 'fr' instead
libdvdnav: Menu Languages available: fr

dump: 396675072 bytes written to '/home/trefix/Bureau/ARCHIVAGE_DVD/DEFAULTPAL_SCN-UUID="426858dd00000000"/8-DEFAULTPAL_SCN.vob'.
Core dumped ;)
Restoring DVD speed... successful

Exiting... (End of file)
ffmpeg version 4.1.4-1~deb10u1 Copyright (c) 2000-2019 the FFmpeg developers
  built with gcc 8 (Debian 8.3.0-6)
  configuration: --prefix=/usr --extra-version='1~deb10u1' --toolchain=hardened --libdir=/usr/lib/x86_64-linux-gnu --incdir=/usr/include/x86_64-linux-gnu --arch=amd64 --enable-gpl --disable-stripping --enable-avresample --disable-filter=resample --enable-avisynth --enable-gnutls --enable-ladspa --enable-libaom --enable-libass --enable-libbluray --enable-libbs2b --enable-libcaca --enable-libcdio --enable-libcodec2 --enable-libflite --enable-libfontconfig --enable-libfreetype --enable-libfribidi --enable-libgme --enable-libgsm --enable-libjack --enable-libmp3lame --enable-libmysofa --enable-libopenjpeg --enable-libopenmpt --enable-libopus --enable-libpulse --enable-librsvg --enable-librubberband --enable-libshine --enable-libsnappy --enable-libsoxr --enable-libspeex --enable-libssh --enable-libtheora --enable-libtwolame --enable-libvidstab --enable-libvorbis --enable-libvpx --enable-libwavpack --enable-libwebp --enable-libx265 --enable-libxml2 --enable-libxvid --enable-libzmq --enable-libzvbi --enable-lv2 --enable-omx --enable-openal --enable-opengl --enable-sdl2 --enable-libdc1394 --enable-libdrm --enable-libiec61883 --enable-chromaprint --enable-frei0r --enable-libx264 --enable-shared
  libavutil      56. 22.100 / 56. 22.100
  libavcodec     58. 35.100 / 58. 35.100
  libavformat    58. 20.100 / 58. 20.100
  libavdevice    58.  5.100 / 58.  5.100
  libavfilter     7. 40.101 /  7. 40.101
  libavresample   4.  0.  0 /  4.  0.  0
  libswscale      5.  3.100 /  5.  3.100
  libswresample   3.  3.100 /  3.  3.100
  libpostproc    55.  3.100 / 55.  3.100
Input #0, mpeg, from '/home/trefix/Bureau/ARCHIVAGE_DVD/DEFAULTPAL_SCN-UUID="426858dd00000000"/8-DEFAULTPAL_SCN.vob':
  Duration: 00:08:43.32, start: 0.287267, bitrate: 6063 kb/s
    Stream #0:0[0x1bf]: Data: dvd_nav_packet
    Stream #0:1[0x1e0]: Video: mpeg2video (Main), 1 reference frame, yuv420p(tv, progressive, left), 720x576 [SAR 64:45 DAR 16:9], 25 fps, 25 tbr, 90k tbn, 50 tbc
    Stream #0:2[0x80]: Audio: ac3, 48000 Hz, stereo, fltp, 256 kb/s
[mpeg @ 0x560e3c2d0600] Invalid stream specifier: 0-map.
[mpeg @ 0x560e3c2d0600] Invalid stream specifier: i:0-map.
[mpeg @ 0x560e3c2d0600] Invalid stream specifier: 0-map.
[mpeg @ 0x560e3c2d0600] Invalid stream specifier: i:0-map.
[mpeg @ 0x560e3c2d0600] Invalid stream specifier: 0-map.
[mpeg @ 0x560e3c2d0600] Invalid stream specifier: i:0-map.
Stream map 'i:0-map' matches no streams.
To ignore this, add a trailing '?' to the map.
[AVIOContext @ 0x560e3c2d9800] Statistics: 396925072 bytes read, 2 seeks
Encodage sur VOB avec AC3 ... OK
mkvmerge v31.0.0 ('Dolores In A Shoestand') 64-bit
Erreur : Le fichier « /home/trefix/Bureau/ARCHIVAGE_DVD/DEFAULTPAL_SCN-UUID="426858dd00000000"/8-DEFAULTPAL_SCN.mkv » ne peut pas être ouvert en lecture : open file error.
MEncoder 1.3.0 (Debian), built with gcc-8 (C) 2000-2016 MPlayer Team
libdvdnav: Using dvdnav version 6.0.0
libdvdnav: DVD Title: DEFAULTPAL_SCN
libdvdnav: DVD Serial Number: 426858dd
libdvdnav: DVD Title (Alternative):
libdvdnav: DVD disk reports itself with Region mask 0x00000000. Regions: 1 2 3 4 5 6 7 8

libdvdread: Attempting to retrieve all CSS keys
libdvdread: This can take a _long_ time, please be patient

libdvdread: Get key for /VIDEO_TS/VIDEO_TS.VOB at 0x0000013e
libdvdread: Elapsed time 0
libdvdread: Get key for /VIDEO_TS/VTS_01_0.VOB at 0x00004d63
libdvdread: Elapsed time 0
libdvdread: Get key for /VIDEO_TS/VTS_01_1.VOB at 0x00004d68
libdvdread: Elapsed time 0
libdvdread: Get key for /VIDEO_TS/VTS_02_0.VOB at 0x00296b45
libdvdread: Elapsed time 0
libdvdread: Get key for /VIDEO_TS/VTS_02_1.VOB at 0x00296b4a
libdvdread: Elapsed time 0
libdvdread: Get key for /VIDEO_TS/VTS_03_0.VOB at 0x0029ed7c
libdvdread: Elapsed time 0
libdvdread: Get key for /VIDEO_TS/VTS_03_1.VOB at 0x0029ed81
libdvdread: Elapsed time 0
libdvdread: Get key for /VIDEO_TS/VTS_04_0.VOB at 0x002a7341
libdvdread: Elapsed time 0
libdvdread: Get key for /VIDEO_TS/VTS_04_1.VOB at 0x002a7346
libdvdread: Elapsed time 0
libdvdread: Found 4 VTS's
libdvdread: Elapsed time 0
libdvdnav: Language 'en' not found, using 'fr' instead
libdvdnav: Menu Languages available: fr
audio stream: 0 format: ac3 (stereo) language: fr aid: 128.
subtitle ( sid ): 0 language: fr

INIT ERROR: couldn't get init pos New position not yet determined.
Remember to disable MPlayer's cache when playing dvdnav:// streams (adding -nocache to your command line)
success: format: 2  data: 0x0 - 0x0
DVDNAV, switched to title: 4
audio stream: 0 format: ac3 (stereo) language: fr aid: 128.
subtitle ( sid ): 0 language: fr

MPEG-PS file format detected.
VIDEO:  MPEG2  720x576  (aspect 3)  25.000 fps  7000.0 kbps (875.0 kbyte/s)
[V] filefmt:2  fourcc:0x10000002  size:720x576  fps:25.000  ftime:=0.0400
VobSub: Can't open IFO file
videocodec: framecopy (720x576 24bpp fourcc=10000002)
Writing header...
ODML: vprp aspect is 16:9.
Writing header...
ODML: vprp aspect is 16:9.
libdvdnav: Language 'en' not found, using 'fr' instead  A-V:0.000 [5687:0]
libdvdnav: Menu Languages available: fr
libdvdnav: Language 'en' not found, using 'fr' instead
libdvdnav: Menu Languages available: fr
libdvdnav: Language 'en' not found, using 'fr' instead
libdvdnav: Menu Languages available: fr

DVDNAV, switched to title: 4
audio stream: 0 format: ac3 (stereo) language: unknown aid: 128.
audio stream: 1 format: ac3 (stereo) language: unknown aid: 129.
audio stream: 2 format: ac3 (stereo) language: unknown aid: 130.
audio stream: 3 format: ac3 (stereo) language: unknown aid: 131.
audio stream: 4 format: ac3 (stereo) language: unknown aid: 132.
audio stream: 5 format: ac3 (stereo) language: unknown aid: 133.
audio stream: 6 format: ac3 (stereo) language: unknown aid: 134.
audio stream: 7 format: ac3 (stereo) language: unknown aid: 135.
subtitle ( sid ): 0 language: unknown
subtitle ( sid ): 0 language: unknown
subtitle ( sid ): 0 language: unknown
subtitle ( sid ): 0 language: unknown
subtitle ( sid ): 0 language: unknown
subtitle ( sid ): 0 language: unknown
subtitle ( sid ): 0 language: unknown
subtitle ( sid ): 0 language: unknown
subtitle ( sid ): 0 language: unknown
subtitle ( sid ): 0 language: unknown
subtitle ( sid ): 0 language: unknown
subtitle ( sid ): 0 language: unknown
subtitle ( sid ): 0 language: unknown
subtitle ( sid ): 0 language: unknown
subtitle ( sid ): 0 language: unknown
subtitle ( sid ): 0 language: unknown
subtitle ( sid ): 0 language: unknown
subtitle ( sid ): 0 language: unknown
subtitle ( sid ): 0 language: unknown
subtitle ( sid ): 0 language: unknown
subtitle ( sid ): 0 language: unknown
subtitle ( sid ): 0 language: unknown
subtitle ( sid ): 0 language: unknown
subtitle ( sid ): 0 language: unknown
subtitle ( sid ): 0 language: unknown
subtitle ( sid ): 0 language: unknown
subtitle ( sid ): 0 language: unknown
subtitle ( sid ): 0 language: unknown
subtitle ( sid ): 0 language: unknown
subtitle ( sid ): 0 language: unknown
subtitle ( sid ): 0 language: unknown
subtitle ( sid ): 0 language: unknown
libdvdnav: Language 'en' not found, using 'fr' instead
libdvdnav: Menu Languages available: fr

Writing index...
Writing header...
ODML: vprp aspect is 16:9.

Video stream: 5687.459 kbit/s  (710932 B/s)  size: 372073605 bytes  523.360 secs  13084 frames
mkvmerge v31.0.0 ('Dolores In A Shoestand') 64-bit
Erreur : Le fichier « /home/trefix/Bureau/ARCHIVAGE_DVD/DEFAULTPAL_SCN-UUID="426858dd00000000"/8-DEFAULTPAL_SCN-[OUT_CHAPTERS].mkv » ne peut pas être ouvert en lecture : open file error.
trefix@neness:~$

Hors ligne

#21 17-11-2019 12:41:47

golgot200
Membre
Distrib. : Archlinux 2018-02-03
Noyau : 5.11.12-arch1-1
(G)UI : Mate (Strict Minimum)
Inscription : 05-08-2007

Re : Ripper DVD

donnes moi le retour de :


lsdvd -a /dev/sr0 -t 01 2> /dev/null | grep "Language:" | sed -n -e "s/.*\(0x\)/\1/p" | sed -e 's/c/1c/g' |  awk '/0x/{gsub (/^/,"-map i:")}1




tu devrais sortir  une info du genre :


-map i:0x80
-map i:0x81
 

Dernière modification par golgot200 (17-11-2019 12:43:34)

Hors ligne

#22 17-11-2019 12:48:39

golgot200
Membre
Distrib. : Archlinux 2018-02-03
Noyau : 5.11.12-arch1-1
(G)UI : Mate (Strict Minimum)
Inscription : 05-08-2007

Re : Ripper DVD

Il faudrait essayer sans dvdnav



#!/bin/bash
## CHANNELS_0=$(ffmpeg -i "$FOLDER/$i-$TITLE.mkv" -ss 00 -t 10 -f null - 2>&1 | grep -c 'Guessed Channel Layout for Input Stream')

PATH=$PATH:/sbin:/usr/sbin


declare -a MPLAYER_IDENTIFY
declare -a LSDVD_X

mplayer_identify () {
    if [[  "${#MPLAYER_IDENTIFY[@]}" -eq 0 ]]; then
        mapfile MPLAYER_IDENTIFY < \
                <(mplayer -noconfig all -nocache -vo null -ao null -frames 0 \
                          -identify -dvd-device "$DEVICE" dvd://"$i" 2>/dev/null)
    fi
    echo -n "${MPLAYER_IDENTIFY[@]}"
}



lsdvd_x () {
    if [[ "${#LSDVD_X[@]}" -eq 0  ]]; then
        mapfile LSDVD_X < <(lsdvd -x "$DEVICE" -t "$i" 2> /dev/null)
    fi
    echo -n "${LSDVD_X[@]}"
}


extract_all_audios_ac3 () {
    ORDER=0
    local output="$2"
    for n in $AIDS_AC3; do
        mplayer -noconfig all -nocache -identify -dvd-device "$DEVICE" dvdnav://$1 \
                 -ni -aid $n \
                 -dumpaudio -dumpfile "$FOLDER/$((ORDER++))-$n-$TITLE.ac3"
    done            
           

}



## Condition : un seul dvd-vidéo.
mapfile -t  BLKID < <(blkid /dev/sr* |sed -E 's/^([^:]+): .*/\1/')

if [[ "${#BLKID[@]}" -eq  "0" ]] ; then
    echo "Aucun DVD trouvé: abandon"
    exit 0
fi

idx=0
for dev in "${BLKID[@]}"; do
    mnt=$(mount |sed -n -E "s/^${dev//\//\\\/} on (.*) type .*\$/\\1/p")
    [[ -z "$mnt" ]] && continue
    if [[ -f "$mnt/VIDEO_TS/VIDEO_TS.IFO" ]]; then
        DEVICES[$idx]="$dev"
        MOUNT_POINTS[$idx]="$mnt"
        idx=$((idx+1))
    fi
done

if [[ "${#DEVICES[@]}" -eq 0 ]]; then
    echo "Aucun dvd vidéo monté : Abandon"
    exit 0
elif [[ "${#DEVICES[@]}" -gt 1 ]];  then
    echo "Il y a plus d'un dvd video détecté : Abandon"
    exit 0
fi

DEVICE=${DEVICES[0]}
MOUNT_POINT=${MOUNT_POINTS[0]}

## Label du dvd-vidéo & nombre total de titres sur celui-ci.
idx=0
TITLE_COUNT=0
regexp='^Title: '
while read -r line; do
    idx=$((idx+1))
    if [[ "$idx" -eq 1 ]]; then
        TITLE=${line#*: }
    elif [[ "$line" =~ $regexp ]]; then
        TITLE_COUNT=$((TITLE_COUNT+1))
    fi
done < <(lsdvd "$DEVICE" 2>/dev/null)

unset regexp dev mnt idx BLKID DEVICES MOUNT_POINTS

if [[ -z "$TITLE" ]]; then
    echo "Pas de dvd vidéo trouvé : abandon"
    exit 0
fi

echo "Proceed..."

UUID=$(blkid | grep "UUID=" | awk '{print$2}')
DIR=$(xdg-user-dir DESKTOP)
FOLDER="$DIR/ARCHIVAGE_DVD/$TITLE-$UUID"

if [[ ! -d "$FOLDER" ]]; then
    echo "$FOLDER n'existe pas !"
    echo "Création Du Dossier $FOLDER"
    mkdir -p "$FOLDER"
fi

for (( i=1; i<=TITLE_COUNT; i++ ))
do
    MPLAYER_IDENTIFY=()
    LSDVD_X=()
## Titres d'une durée de plus de .... secondes [ ici, 0 seconde]
    LENGTH=$(mplayer_identify "$i" |sed -E -n 's/^.*ID_LENGTH=([0-9]+).*$/\1/p')
    LIMIT=0
    [[ "$LENGTH" -le "$LIMIT" ]] && continue



    ALLSHOW_TAG=$(mplayer -vo null -ao null -frames 0 -identify dvd://"$i" -dvd-device "$DEVICE"  2>/dev/null | \
              awk '/audio stream:/  {printf "-metadata:s:a:"$3" language="$8" -metadata:s:a:"$3" title="$5$6" "}')
             
    MAP_ID_STREAMS=$(lsdvd -a "$DEVICE" -t "$i" 2> /dev/null | \
             grep "Language:" | sed -n -e "s/.*\(0x\)/\1/p" | sed -e 's/c/1c/g' | \
             awk '/0x/{gsub (/^/,"-map i:")}1')
             
       
    MAP_ID_STREAMS_LPCM=$(lsdvd_x "$i" | sed -n -E '/lpcm/s/.*(0x)/\1/p' | \
                              awk '{ gsub(/c/, "1c") }
                                   /0x/ { gsub (/^/,"-map i:")}
                                   { print $0 }'
)              
                                       
    COUNT_LPCM=$(lsdvd_x "$i" |grep -c 'lpcm')
   

    AIDS_LPCM=$(lsdvd_x "$i" | awk '/lpcm|id:/ { print $22 }')
   
   
## Dump du dvd
    mplayer -noconfig all -nocache -dvd-device "$DEVICE" -dvd-speed 12 dvd://"$i" \
            -dumpstream -dumpfile "$FOLDER/$i-$TITLE.vob"
           
           
    AUDIO_NULL=$(ffmpeg -i "$FOLDER/$i-$TITLE.vob" -ss 00 -t 10 -f null - 2>&1 | grep -c 'audio:0kB')


    O_CHANNELS=$(ffprobe "$FOLDER/$i-$TITLE.vob" 2>&1 | grep -c '(Audio: ac3, 0 channels)')
   
   

## Pour ne pas avoir les infos doublées avec dvdnav.
## | tr ' ' '\n' | sort | uniq | xargs
         
    AIDS_AC3=$(mplayer -noconfig all -nocache -vo null -ao null -frames 0 -identify -dvd-device "$DEVICE" dvd://"$i" 2>/dev/null | \
          grep "audio stream:" | grep -E "mpeg1|ac3|dts" | awk '{print$10}' | tr -d '.')          

   

## les streams audios "ac3, 0 channels"
    if [[ "$AUDIO_NULL" -eq "0" ]] && [[ "$O_CHANNELS" -ge "1" ]] ;
    then
         echo "0 channels détecté ... démultiplexage en cours ..."
         
         sleep 3
         
        ffmpeg -analyzeduration 1000M -probesize 1000M -vsync passthrough -i "$FOLDER/$i-$TITLE.vob" \
            -map 0:v -metadata title="$TITLE" \
            -c:v libx264 -b:v 4000k -maxrate 4000k -bufsize 8000k \
            -loglevel repeat+verbose -movflags faststart \
            -x264opts 'keyint=300:min-keyint=25:8x8dct:sliced-threads=0' \
            -an -movflags +faststart \
            -deblock 1:1 -flags +loop -qcomp 0.60 -qblur 0.5 -coder 1 -me_range 6 -sc_threshold 42 -bf 10 -trellis 2 -mbtree 1 -qmin 0 -qmax 52 \
            -filter:v hue=b=0.0:s=0.7,hqdn3d=1.5:1.5:4:4,unsharp=luma_msize_x=5:luma_msize_y=5:luma_amount=0.5,noise=c0s=2:c1s=2:c2s=2:c0f=a+t \
            -preset slow -y "$FOLDER/$i-$TITLE.mkv"            
                                                                                                                                                                                                                                                                                                       
            rm -f "$FOLDER/$i-$TITLE.vob"
       
        extract_all_audios_ac3 "$i" "$FOLDER/$n-$TITLE.ac3"


            find $FOLDER -name "*.ac3" -size -1000k -delete
 

        mkvmerge -o "$FOLDER/$i-$TITLE-[MIX].mkv" "$FOLDER/$i-$TITLE.mkv" $FOLDER/*.ac3
            rm -f "$FOLDER/$i-$TITLE.mkv"
            rm -f $FOLDER/*.ac3
       
        ffmpeg -i "$FOLDER/$i-$TITLE-[MIX].mkv" -map 0:v -map 0:a -c copy $ALLSHOW_TAG "$FOLDER/$i-$TITLE-[MIX+TAGS].mkv"
         
             
           rm -f "$FOLDER/$i-$TITLE-[MIX].mkv"



           echo "Démultiplexage et Encodage sur VOB sur audio(s) O_CHANNELS OK"
           sleep 3
           
           dvdxchap -t  "$i" "$DEVICE" > "$FOLDER/$i-$TITLE-CHAPTERS.txt"
           
           mkvmerge "$FOLDER/$i-$TITLE-[MIX+TAGS].mkv" --chapters "$FOLDER/$i-$TITLE-CHAPTERS.txt" \
            -o "$FOLDER/$i-$TITLE-[OUT_CHAPTERS].mkv"
           
           rm -f "$FOLDER/$i-$TITLE-CHAPTERS.txt"
           rm -f "$FOLDER/$i-$TITLE-[MIX+TAGS].mkv"              



fi



## les vobs "audio:0kB"
    if [[ "$AUDIO_NULL" -eq "1" ]] && [[ "$O_CHANNELS" -eq "0" ]] ;
    then
   
        echo "VOB sans stream audio détecté"
        sleep 3    

        ffmpeg -analyzeduration 1000M -probesize 1000M -vsync passthrough -i "$FOLDER/$i-$TITLE.vob" \
            -map 0:v -metadata title="$TITLE" \
            -c:v libx264 -b:v 4000k -maxrate 4000k -bufsize 8000k \
            -loglevel repeat+verbose -movflags faststart \
            -x264opts 'keyint=300:min-keyint=25:8x8dct:sliced-threads=0' \
            -an -movflags +faststart -max_muxing_queue_size 9999 \
            -deblock 1:1 -flags +loop -qcomp 0.60 -qblur 0.5 -coder 1 -me_range 6 -sc_threshold 42 -bf 10 -trellis 2 -mbtree 1 -qmin 0 -qmax 52 \
            -filter:v hue=b=0.0:s=0.7,hqdn3d=1.5:1.5:4:4,unsharp=luma_msize_x=5:luma_msize_y=5:luma_amount=0.5,noise=c0s=2:c1s=2:c2s=2:c0f=a+t \
            -preset slow -y "$FOLDER/$i-$TITLE.mkv"    
   
       
            rm -f "$FOLDER/$i-$TITLE.vob"
   
            echo "Encodage sur VOB sans audio OK"
            sleep 3
   
            dvdxchap -t  "$i" "$DEVICE" > "$FOLDER/$i-$TITLE-CHAPTERS.txt"
           
           mkvmerge "$FOLDER/$i-$TITLE.mkv" --chapters "$FOLDER/$i-$TITLE-CHAPTERS.txt" \
            -o "$FOLDER/$i-$TITLE-[OUT_CHAPTERS].mkv"
           
           rm -f "$FOLDER/$i-$TITLE.mkv"
           rm -f "$FOLDER/$i-$TITLE-CHAPTERS.txt"
                 
       
    fi  


## Films encodage
    if [[ "$COUNT_LPCM" -eq "0" ]] && [[ "$AUDIO_NULL" -eq "0" ]] && [[ "$O_CHANNELS" -eq "0" ]] ;

    then          
           
## CPU                  
        ffmpeg -analyzeduration 1000M -probesize 1000M -vsync passthrough -i "$FOLDER/$i-$TITLE.vob" \
            -map 0:v -metadata title="$TITLE" \
            -c:v libx264 -b:v 4000k -maxrate 4000k -bufsize 8000k \
            -loglevel repeat+verbose -movflags faststart \
            -x264opts 'keyint=300:min-keyint=25:8x8dct:sliced-threads=0' \
            ${MAP_ID_STREAMS} -c:a copy $ALLSHOW_TAG -movflags +faststart -max_muxing_queue_size 9999 \
            -deblock 1:1 -flags +loop -qcomp 0.60 -qblur 0.5 -coder 1 -me_range 6 -sc_threshold 42 -bf 10 -trellis 2 -mbtree 1 -qmin 0 -qmax 52 \
            -filter:v hue=b=0.0:s=0.7,hqdn3d=1.5:1.5:4:4,unsharp=luma_msize_x=5:luma_msize_y=5:luma_amount=0.5,noise=c0s=2:c1s=2:c2s=2:c0f=a+t \
            -preset slow -y "$FOLDER/$i-$TITLE.mkv"
           
            rm -f "$FOLDER/$i-$TITLE.vob"
           
           
           
            echo "Encodage sur VOB avec AC3 ... OK"
            sleep 3
           
            dvdxchap -t  "$i" "$DEVICE" > "$FOLDER/$i-$TITLE-CHAPTERS.txt"
           
            mkvmerge "$FOLDER/$i-$TITLE.mkv" --chapters "$FOLDER/$i-$TITLE-CHAPTERS.txt" \
             -o "$FOLDER/$i-$TITLE-[OUT_CHAPTERS].mkv"
           
            rm -f "$FOLDER/$i-$TITLE.mkv"
            rm -f "$FOLDER/$i-$TITLE-CHAPTERS.txt"
                           
           
           
fi            
           


## Concerts encodage
    if [[ "$COUNT_LPCM" -ge "1" ]] && [[ "$AUDIO_NULL" -eq "0" ]] && [[ "$O_CHANNELS" -eq "0" ]] ;

    then
   
        echo "Encodage du concert"
        sleep 2      
   
## CPU    
        ffmpeg -analyzeduration 1000M -probesize 1000M -vsync passthrough -i "$FOLDER/$i-$TITLE.vob" \
            -map 0:v -metadata title="$TITLE" \
            -c:v libx264 -b:v 4000k -maxrate 4000k -bufsize 8000k \
            -loglevel repeat+verbose -movflags faststart \
            -x264opts 'keyint=300:min-keyint=25:8x8dct:sliced-threads=0' \
            ${MAP_ID_STREAMS_LPCM} -acodec pcm_s16be $ALLSHOW_TAG -movflags +faststart -max_muxing_queue_size 9999 \
            -deblock 1:1 -flags +loop -qcomp 0.60 -qblur 0.5 -coder 1 -me_range 6 -sc_threshold 42 -bf 10 -trellis 2 -mbtree 1 -qmin 0 -qmax 52 \
            -filter:v hue=b=0.0:s=0.7,hqdn3d=1.5:1.5:4:4,unsharp=luma_msize_x=5:luma_msize_y=5:luma_amount=0.5,noise=c0s=2:c1s=2:c2s=2:c0f=a+t \
            -preset slow -y "$FOLDER/$i-$TITLE.mkv"
           
            rm -f "$FOLDER/$i-$TITLE.vob"
           
         
           
            echo "Encodage du VOB avec LPCM ... OK"
            sleep 3
           
            dvdxchap -t  "$i" "$DEVICE" > "$FOLDER/$i-$TITLE-CHAPTERS.txt"
           
            mkvmerge "$FOLDER/$i-$TITLE.mkv" --chapters "$FOLDER/$i-$TITLE-CHAPTERS.txt" \
             -o "$FOLDER/$i-$TITLE-[OUT_CHAPTERS].mkv"            
           
            rm -f "$FOLDER/$i-$TITLE.mkv"
            rm -f "$FOLDER/$i-$TITLE-CHAPTERS.txt"
           


for n in $AIDS_LPCM; do
        mplayer -noconfig all -nocache -benchmark -vc null -vo null \
                 -ao pcm:fast:file="$FOLDER/[$i-($n)]-$TITLE.wav" \
                 -identify -dvd-device "$DEVICE" dvdnav://$i -ni -aid $n
done  
                                       
            mkdir -p "$FOLDER/WAVE"
            mv "$FOLDER/[$i-($n)]-$TITLE.wav" "$FOLDER/WAVE"          
           

                           
fi


      INFO_FILE=$(mplayer -vo null -ao null -frames 0 -identify "$FOLDER/$i-$TITLE-[OUT_CHAPTERS].mkv" 2>/dev/null | \
          awk '/alang/  { x = x $9 ""}
              END { sub(/,*$/, "", x); print x }'
)

      INFO_FILE_NULL=$(echo "$INFO_FILE" |wc -w)              
           

                         



## Intégration des vobsubs français.
    SIDFR=$(lsdvd -s "$DEVICE" -t "$i" 2> /dev/null |awk '/Subtitle:/ && /Language: fr/ { sub(/,$/ ,"", $2);
                                      if ($2 ~ /^[0-9]+$/) print (--$2) }'
)

    COUNT_SID_FR=$(echo "$SIDFR" |wc -w)

    RATIO=$(lsdvd -x "$DEVICE" -t "$i" | \
                awk 'NR <= 3 && /Aspect ratio:/ {sub(/\//, ":", $11); x = x " " $11}
                          END { sub(/.$/, "", x); print x}'
)




## Option tout en français..
VERIF_AUDIOFR=$(mplayer -vo null -ao null -frames 0 -identify "$FOLDER/$i-$TITLE-[OUT_CHAPTERS].mkv" 2>/dev/null | \
   grep -c "alang fre,")
   


## Il y a une ou plusieurs bandes audios françaises, pas besoin de soustitres
if [[ "$VERIF_AUDIOFR" -ge "1" ]]; then
mkvmerge -o "$FOLDER/$i-$TITLE-[Language: Français 1111].mkv" -a fre "$FOLDER/$i-$TITLE-[OUT_CHAPTERS].mkv"
    rm -f "$FOLDER/$i-$TITLE-[OUT_CHAPTERS].mkv"
   
   
    fi

## Il n'y a pas de bande audio française, mais au moins un soustitre français
if [[ "$VERIF_AUDIOFR" -eq "0" ]] && [[ "$COUNT_SID_FR" -ge "1" ]]  ; then

for n in $SIDFR; do mencoder -dvd-device $DEVICE dvd://"$i" -nosound -ovc copy -force-avi-aspect $RATIO -o /dev/null \
               -ifo "/run/media/$USER/$TITLE/VIDEO_TS/VTS_01_0.IFO" -sid $n -vobsubout "$FOLDER/$n-vobsubs-fr" -vobsuboutindex $n ; done  

mkvmerge "$FOLDER/$i-$TITLE-[OUT_CHAPTERS].mkv" --language "0:fre" "$FOLDER"/*.idx  -o "$FOLDER/$i-$TITLE-[Language: $INFO_FILE + subvf 2222].mkv"

    rm -f "$FOLDER"/*.idx
    rm -f "$FOLDER"/*.sub
    rm -f "$FOLDER/$i-$TITLE-[OUT_CHAPTERS].mkv"  

   
   fi    

## Il n'y a pas de bande audio française, pas de soustitre français mais un autre "alang"
if [[ "$VERIF_AUDIOFR" -eq "0" ]] && [[ "$COUNT_SID_FR" -eq "0" ]] && [[ "$INFO_FILE_NULL" -ge "1" ]]; then

mv "$FOLDER/$i-$TITLE-[OUT_CHAPTERS].mkv" "$FOLDER/$i-$TITLE-[Language: $INFO_FILE NOSUB 3333].mkv"
rm -f "$FOLDER/$i-$TITLE-[OUT_CHAPTERS].mkv"



  fi
 

## Il n'y a pas de bande audio française, pas de soustitre français et pas de "alang" ( vidéo sans audio )  
if [[ "$VERIF_AUDIOFR" -eq "0" ]] && [[ "$COUNT_SID_FR" -eq "0" ]] && [[ "$INFO_FILE_NULL" -eq "0" ]] ; then

mv "$FOLDER/$i-$TITLE-[OUT_CHAPTERS].mkv" "$FOLDER/$i-$TITLE-[Language: UND and NOSUB 4444].mkv"
rm -f "$FOLDER/$i-$TITLE-[OUT_CHAPTERS].mkv"



  fi          


done




 

Hors ligne

#23 17-11-2019 13:27:13

Trefix
Membre
Lieu : 48
Distrib. : buster 10.9 + bpo
Noyau : linux 4.19.0-16-amd64
(G)UI : Xfce4 4.12.5
Inscription : 15-02-2015

Re : Ripper DVD

golgot200 a écrit :

donnes moi le retour de :


lsdvd -a /dev/sr0 -t 01 2> /dev/null | grep "Language:" | sed -n -e "s/.*\(0x\)/\1/p" | sed -e 's/c/1c/g' |  awk '/0x/{gsub (/^/,"-map i:")}1


Pas de retour, terminal gelé. Le DVD est dedans et monté, est-ce la bonne manip' ?

Hors ligne

#24 17-11-2019 14:54:30

golgot200
Membre
Distrib. : Archlinux 2018-02-03
Noyau : 5.11.12-arch1-1
(G)UI : Mate (Strict Minimum)
Inscription : 05-08-2007

Re : Ripper DVD

il faudrait que tu fasses un test sur un dvd-vidéo moins récalcitrant pour voir.

Hors ligne

#25 17-11-2019 15:46:21

Trefix
Membre
Lieu : 48
Distrib. : buster 10.9 + bpo
Noyau : linux 4.19.0-16-amd64
(G)UI : Xfce4 4.12.5
Inscription : 15-02-2015

Re : Ripper DVD

DVD monté ou pas (La flûte enchantée, Ed. Mezzo, 2013, acheté il y a six mois), le terminal ne donne pas de retour à ton lsdvd -a /dev/sr0 non plus. En root, alors ?

Pas mieux en root...

Dernière modification par Trefix (17-11-2019 16:13:41)

Hors ligne

Pied de page des forums