Debian-facile

Bienvenue sur Debian-Facile, site d'aide pour les nouveaux utilisateurs de Debian.

Vous n'êtes pas identifié(e).

#1 08-01-2020 08:08:58

golgot200
Membre
Distrib. : Archlinux 2018-02-03
Noyau : 5.9.4-arch1-1
(G)UI : Mate (Strict Minimum)
Inscription : 05-08-2007

[Résolu]Créer un motif de recherche avec un mot contenant un slash.

Bonjour,

j'aimerai printer un mot contenant un slash avec awk mais je n'y arrive pas :

kb/s



c'est sur le slash que ça coince.

une idée ?

Dernière modification par golgot200 (08-01-2020 15:46:59)

Hors ligne

#2 08-01-2020 09:34:48

smolski
quasi...modo
Lieu : AIN
Distrib. : backports (buster) 10
Noyau : Linux 4.19.0-8-amd64
(G)UI : gnome
Inscription : 21-10-2008

Re : [Résolu]Créer un motif de recherche avec un mot contenant un slash.

Un tuto perso :
https://debian-facile.org/utilisateurs: … tionnelles

Qui semble répondre à ta demande par une anti-slash... question.gif

"Théo et Adama te rappellent pourquoi Zyed et Bouna couraient…"
"L'utopie ne signifie pas l'irréalisable, mais l'irréalisée." - T Monod (source :  La zone de Siné)
"Je peux rire de tout mais pas avec n'importe qui." - P Desproges
"saque eud dun" (patois chtimi : fonce dedans)

Hors ligne

#3 08-01-2020 13:25:21

golgot200
Membre
Distrib. : Archlinux 2018-02-03
Noyau : 5.9.4-arch1-1
(G)UI : Mate (Strict Minimum)
Inscription : 05-08-2007

Re : [Résolu]Créer un motif de recherche avec un mot contenant un slash.

Merci smolski,

j'ai  regardé avec attention mais non, je ne trouve pas le moyen hmm

Dernière modification par golgot200 (08-01-2020 13:25:36)

Hors ligne

#4 08-01-2020 14:27:48

phlinux
Membre
Distrib. : Jessie
Noyau : 4.9
(G)UI : Openbox (+Rox+Feh)
Inscription : 09-05-2009

Re : [Résolu]Créer un motif de recherche avec un mot contenant un slash.

Bjr,

Si c'est pas top-secret, quelle est ta ldc ?

Pages perso : feh, omegat, udisks, passerelle, schroot vraiment transparent

Hors ligne

#5 08-01-2020 14:55:00

golgot200
Membre
Distrib. : Archlinux 2018-02-03
Noyau : 5.9.4-arch1-1
(G)UI : Mate (Strict Minimum)
Inscription : 05-08-2007

Re : [Résolu]Créer un motif de recherche avec un mot contenant un slash.

phlinux a écrit :

Bjr,

Si c'est pas top-secret, quelle est ta ldc ?



Bonjour,

je n'avais pas encore une commande bien précise smile

un truc comme ça : ( sur des infos)


Stream #0:1(eng): Audio: ac3, 48000 Hz, stereo, fltp, 192 kb/s (default)
Stream #0:2(fre): Audio: ac3, 48000 Hz, stereo, fltp
Stream #0:3(ita): Audio: ac3, 48000 Hz, stereo, fltp
Stream #0:4(eng): Audio: ac3, 48000 Hz, stereo, fltp
 



et plus précisement cette ligne où se trouve kb/s

awk '/Audio:/ && /Stream/ && /ac3,/ && /kb/ { print $2 }'



pour printer :

#0:1(eng):



ici, j'ai mis /kb/ qui foctionne mais je voulais mettre /kb/s/ à la place.

Cette démarche en fait me cible la ou les bandes audios valides.
Ici les 3 autres sont à 0 kbs donc non affichées en kb/s

@smolshi,

avec cette option, ça m'évitera de dumper les 4 audios et de supprimer le 3 audio à 16 ko/s  tongue

Dernière modification par golgot200 (08-01-2020 15:06:02)

Hors ligne

#6 08-01-2020 15:10:35

MicP
Membre
Inscription : 29-02-2016

Re : [Résolu]Créer un motif de recherche avec un mot contenant un slash.

Bonjour

…je voulais mettre /kb/s/ à la place.…

alors, mets /kb\/s/
ce qui donne :

awk '/Audio:/ && /Stream/ && /ac3,/ && /kb\/s/ { print $2 }'



=======

…j'aimerai printer un mot contenant un slash …

Formulé comme ça, je n'avais pas compris ce que tu voulais,
tu aurais plutôt dû dire :

…j'aimerai créer un motif de recherche avec un mot contenant un slash …

Dernière modification par MicP (08-01-2020 15:17:21)

Hors ligne

#7 08-01-2020 15:11:31

golgot200
Membre
Distrib. : Archlinux 2018-02-03
Noyau : 5.9.4-arch1-1
(G)UI : Mate (Strict Minimum)
Inscription : 05-08-2007

Re : [Résolu]Créer un motif de recherche avec un mot contenant un slash.

MicP a écrit :

Bonjour

…je voulais mettre /kb/s/ à la place.…

alors, mets /kb\/s/



je teste de suite ...

Hors ligne

#8 08-01-2020 15:13:31

phlinux
Membre
Distrib. : Jessie
Noyau : 4.9
(G)UI : Openbox (+Rox+Feh)
Inscription : 09-05-2009

Re : [Résolu]Créer un motif de recherche avec un mot contenant un slash.

Ce qu'a indiqué Smolski semble fonctionner

echo "Stream #0:1(eng): Audio: ac3, 48000 Hz, stereo, fltp, 192 kb/s (default)\
Stream #0:2(fre): Audio: ac3, 48000 Hz, stereo, fltp\
Stream #0:3(ita): Audio: ac3, 48000 Hz, stereo, fltp\
Stream #0:4(eng): Audio: ac3, 48000 Hz, stereo, fltp"
\
 | awk '/Audio:/ && /Stream/ && /ac3,/ && /kb\/s/ { print $2 }'


#0:1(eng):


Pages perso : feh, omegat, udisks, passerelle, schroot vraiment transparent

Hors ligne

#9 08-01-2020 15:22:19

golgot200
Membre
Distrib. : Archlinux 2018-02-03
Noyau : 5.9.4-arch1-1
(G)UI : Mate (Strict Minimum)
Inscription : 05-08-2007

Re : [Résolu]Créer un motif de recherche avec un mot contenant un slash.

Ce qui est bizarre, j'ai essayé mais ça n'a pas fonctionné. J'ai du inversé  \/ par ça /\
ça me disait une truc comme "n'est pas refermé ... ou un truc dans le genre hmm

En tout cas maintenant j'ai un joli résultat sur cette exemple de deux streams audio foireux sur les 3 :


mkvmerge v42.0.0 ('Overtime') 64-bit
« /home/patrick/Desktop/ARCHIVAGE_DVD/LADY_AND_THE_TRAMP2/3-LADY_AND_THE_TRAMP2-[OPTION 1 ALL].mkv » : utilisation du démultiplexeur pour le format « Matroska ».
« /home/patrick/Desktop/ARCHIVAGE_DVD/LADY_AND_THE_TRAMP2/3-LADY_AND_THE_TRAMP2-[OPTION 1 ALL].mkv » piste 0 : utilisation du module de sortie pour le format « HEVC/H.265 ».
« /home/patrick/Desktop/ARCHIVAGE_DVD/LADY_AND_THE_TRAMP2/3-LADY_AND_THE_TRAMP2-[OPTION 1 ALL].mkv » piste 1 : utilisation du module de sortie pour le format « AC-3 ».
« /home/patrick/Desktop/ARCHIVAGE_DVD/LADY_AND_THE_TRAMP2/3-LADY_AND_THE_TRAMP2-[OPTION 1 ALL].mkv » piste 2 : utilisation du module de sortie pour le format « AC-3 ».
« /home/patrick/Desktop/ARCHIVAGE_DVD/LADY_AND_THE_TRAMP2/3-LADY_AND_THE_TRAMP2-[OPTION 1 ALL].mkv » piste 3 : utilisation du module de sortie pour le format « AC-3 ».
« /home/patrick/Desktop/ARCHIVAGE_DVD/LADY_AND_THE_TRAMP2/3-LADY_AND_THE_TRAMP2-[OPTION 1 ALL].mkv » piste 5 : utilisation du module de sortie pour le format « VobSub ».
« /home/patrick/Desktop/ARCHIVAGE_DVD/LADY_AND_THE_TRAMP2/3-LADY_AND_THE_TRAMP2-[OPTION 1 ALL].mkv » piste 6 : utilisation du module de sortie pour le format « VobSub ».
Le fichier « /home/patrick/Desktop/ARCHIVAGE_DVD/LADY_AND_THE_TRAMP2/3-LADY_AND_THE_TRAMP2-[OPTION 1 RETOUCHE].mkv » est ouvert en écriture.
Progression : 100%
Les entrées CUE (l'index) sont en cours d'écriture…
Le multiplexage a pris 0 seconde.
mkvmerge v42.0.0 ('Overtime') 64-bit
« /home/patrick/Desktop/ARCHIVAGE_DVD/LADY_AND_THE_TRAMP2/3-LADY_AND_THE_TRAMP2-[Language: eng,fre,ita].mkv » : utilisation du démultiplexeur pour le format « Matroska ».
« /home/patrick/Desktop/ARCHIVAGE_DVD/LADY_AND_THE_TRAMP2/3-LADY_AND_THE_TRAMP2-[Language: eng,fre,ita].mkv » piste 0 : utilisation du module de sortie pour le format « HEVC/H.265 ».
« /home/patrick/Desktop/ARCHIVAGE_DVD/LADY_AND_THE_TRAMP2/3-LADY_AND_THE_TRAMP2-[Language: eng,fre,ita].mkv » piste 2 : utilisation du module de sortie pour le format « AC-3 ».
« /home/patrick/Desktop/ARCHIVAGE_DVD/LADY_AND_THE_TRAMP2/3-LADY_AND_THE_TRAMP2-[Language: eng,fre,ita].mkv » piste 4 : utilisation du module de sortie pour le format « VobSub ».
« /home/patrick/Desktop/ARCHIVAGE_DVD/LADY_AND_THE_TRAMP2/3-LADY_AND_THE_TRAMP2-[Language: eng,fre,ita].mkv » piste 5 : utilisation du module de sortie pour le format « VobSub ».
Le fichier « /home/patrick/Desktop/ARCHIVAGE_DVD/LADY_AND_THE_TRAMP2/3-LADY_AND_THE_TRAMP2-[Language: Français].mkv » est ouvert en écriture.
Progression : 100%
Les entrées CUE (l'index) sont en cours d'écriture…
Le multiplexage a pris 0 seconde.

 



Merci beaucoup pour l'aide smile

Je met en résolu.

Hors ligne

#10 08-01-2020 15:25:05

phlinux
Membre
Distrib. : Jessie
Noyau : 4.9
(G)UI : Openbox (+Rox+Feh)
Inscription : 09-05-2009

Re : [Résolu]Créer un motif de recherche avec un mot contenant un slash.

Oui "awk" t'a indiqué qu'il manquait le dernier slash

Dernière modification par phlinux (08-01-2020 15:25:17)


Pages perso : feh, omegat, udisks, passerelle, schroot vraiment transparent

Hors ligne

#11 08-01-2020 15:32:45

golgot200
Membre
Distrib. : Archlinux 2018-02-03
Noyau : 5.9.4-arch1-1
(G)UI : Mate (Strict Minimum)
Inscription : 05-08-2007

Re : [Résolu]Créer un motif de recherche avec un mot contenant un slash.

Oui

smile

Merci encore. wink

@smolski .... je continue le bidule smile

Hors ligne

#12 08-01-2020 15:47:49

golgot200
Membre
Distrib. : Archlinux 2018-02-03
Noyau : 5.9.4-arch1-1
(G)UI : Mate (Strict Minimum)
Inscription : 05-08-2007

Re : [Résolu]Créer un motif de recherche avec un mot contenant un slash.

MicP a écrit :

....
=======

…j'aimerai printer un mot contenant un slash …

Formulé comme ça, je n'avais pas compris ce que tu voulais,
tu aurais plutôt dû dire :

…j'aimerai créer un motif de recherche avec un mot contenant un slash …



Modifié wink

Hors ligne

Pied de page des forums