Debian Debian-France Debian-Facile Debian-fr.org Debian-fr.xyz Debian ? Communautés

Debian-facile

Bienvenue sur Debian-Facile, site d'aide pour les nouveaux utilisateurs de Debian.

Vous n'êtes pas identifié(e).

#26 19-11-2020 07:49:19

golgot200
Membre
Distrib. : Archlinux 2018-02-03
Noyau : 5.11.12-arch1-1
(G)UI : Mate (Strict Minimum)
Inscription : 05-08-2007

Re : résolu:assembler deux vidéos mp4

C'est quoi ce cat sur les vidéos ? Je pige pas

Mon tuto est fini wink Tu verras, ça va fonctionner car je l'ai mis en pratique en postant wink

Dernière modification par golgot200 (19-11-2020 07:51:26)

Hors ligne

#27 19-11-2020 07:50:31

lagrenouille
Adhérent(e)
Lieu : Toulouse, con !
Distrib. : debian buster - openbsd
Noyau : d'olive
(G)UI : env i3w - openbox_bépo
Inscription : 28-03-2012
Site Web

Re : résolu:assembler deux vidéos mp4

C'est quoi ce cat sur les vidéos ? Je pige pas

pour les concaténer

N'est-il pas étrange de voir les hommes combattre si volontiers pour leur religion et vivre si peu volontiers selon ses préceptes ?
Georg Christoph Lichtenberg

Hors ligne

#28 19-11-2020 07:52:36

golgot200
Membre
Distrib. : Archlinux 2018-02-03
Noyau : 5.11.12-arch1-1
(G)UI : Mate (Strict Minimum)
Inscription : 05-08-2007

Re : résolu:assembler deux vidéos mp4

lagrenouille a écrit :

C'est quoi ce cat sur les vidéos ? Je pige pas

pour les concaténer



OK, alors ça c'est vraiment pas terrible à cause des entètes ... oublie wink

Dernière modification par golgot200 (19-11-2020 07:55:12)

Hors ligne

#29 19-11-2020 08:11:13

lagrenouille
Adhérent(e)
Lieu : Toulouse, con !
Distrib. : debian buster - openbsd
Noyau : d'olive
(G)UI : env i3w - openbox_bépo
Inscription : 28-03-2012
Site Web

Re : résolu:assembler deux vidéos mp4

mediainfo 1.mp4+AUDIO.mp4



General
Complete name                            : 1.mp4+AUDIO.mp4
Format                                   : MPEG-4
Format profile                           : Base Media
Codec ID                                 : isom (isom/iso2/avc1/mp41)
File size                                : 132 KiB
Duration                                 : 3 s 0 ms
Overall bit rate                         : 360 kb/s
Writing application                      : Lavf58.20.100

Video
ID                                       : 1
Format                                   : AVC
Format/Info                              : Advanced Video Codec
Format profile                           : High 4:4:4 Predictive@L3.2
Format settings                          : CABAC / 4 Ref Frames
Format settings, CABAC                   : Yes
Format settings, ReFrames                : 4 frames
Codec ID                                 : avc1
Codec ID/Info                            : Advanced Video Coding
Duration                                 : 3 s 0 ms
Bit rate                                 : 163 kb/s
Width                                    : 1 280 pixels
Height                                   : 858 pixels
Display aspect ratio                     : 3:2
Frame rate mode                          : Constant
Frame rate                               : 25.000 FPS
Chroma subsampling                       : 4:4:4
Bit depth                                : 8 bits
Scan type                                : Progressive
Bits/(Pixel*Frame)                       : 0.006
Stream size                              : 59.6 KiB (45%)
Writing library                          : x264 core 155 r2917 0a84d98
Encoding settings                        : cabac=1 / ref=3 / deblock=1:0:0 / analyse=0x1:0x111 / me=hex / subme=7 / psy=1 / psy_rd=1.00:0.00 / mixed_ref=1 / me_range=16 / chroma_me=1 / trellis=1 / 8x8dct=0 / cqm=0 / deadzone=21,11 / fast_pskip=1 / chroma_qp_offset=4 / threads=6 / lookahead_threads=1 / sliced_threads=0 / nr=0 / decimate=1 / interlaced=0 / bluray_compat=0 / constrained_intra=0 / bframes=3 / b_pyramid=2 / b_adapt=1 / b_bias=0 / direct=1 / weightb=1 / open_gop=0 / weightp=2 / keyint=250 / keyint_min=25 / scenecut=40 / intra_refresh=0 / rc_lookahead=40 / rc=crf / mbtree=1 / crf=23.0 / qcomp=0.60 / qpmin=0 / qpmax=69 / qpstep=4 / ip_ratio=1.40 / aq=1:1.00
Color range                              : Full
Codec configuration box                  : avcC

Audio
ID                                       : 2
Format                                   : AC-3
Format/Info                              : Audio Coding 3
Commercial name                          : Dolby Digital
Codec ID                                 : ac-3
Duration                                 : 2 s 944 ms
Bit rate mode                            : Constant
Bit rate                                 : 192 kb/s
Channel(s)                               : 2 channels
Channel layout                           : L R
Sampling rate                            : 48.0 kHz
Frame rate                               : 31.250 FPS (1536 SPF)
Bit depth                                : 16 bits
Compression mode                         : Lossy
Stream size                              : 69.0 KiB (52%)
Title                                    : Français AC3
Language                                 : French
Service kind                             : Complete Main
Default                                  : Yes
Alternate group                          : 1

 


N'est-il pas étrange de voir les hommes combattre si volontiers pour leur religion et vivre si peu volontiers selon ses préceptes ?
Georg Christoph Lichtenberg

Hors ligne

#30 19-11-2020 08:16:31

golgot200
Membre
Distrib. : Archlinux 2018-02-03
Noyau : 5.11.12-arch1-1
(G)UI : Mate (Strict Minimum)
Inscription : 05-08-2007

Re : résolu:assembler deux vidéos mp4

Donc là, on voit bien que tu as appliqué un son sur ta vidéo 1.mp4 wink

Hors ligne

#31 19-11-2020 08:38:56

lagrenouille
Adhérent(e)
Lieu : Toulouse, con !
Distrib. : debian buster - openbsd
Noyau : d'olive
(G)UI : env i3w - openbox_bépo
Inscription : 28-03-2012
Site Web

Re : résolu:assembler deux vidéos mp4

ffmpeg -safe 0 -f concat -i <(find . -type f -name '*' -printf "file '$PWD/%p'\n" | sort) -c copy FINAL.mp4


.
la vidéo sort bien, très lourde, puisque 946 M, mais pas de son ?


N'est-il pas étrange de voir les hommes combattre si volontiers pour leur religion et vivre si peu volontiers selon ses préceptes ?
Georg Christoph Lichtenberg

Hors ligne

#32 19-11-2020 08:43:49

golgot200
Membre
Distrib. : Archlinux 2018-02-03
Noyau : 5.11.12-arch1-1
(G)UI : Mate (Strict Minimum)
Inscription : 05-08-2007

Re : résolu:assembler deux vidéos mp4

Pas de son au début de la vidéo ou sur sa totalité ?

Dernière modification par golgot200 (19-11-2020 08:46:03)

Hors ligne

#33 19-11-2020 08:44:25

lagrenouille
Adhérent(e)
Lieu : Toulouse, con !
Distrib. : debian buster - openbsd
Noyau : d'olive
(G)UI : env i3w - openbox_bépo
Inscription : 28-03-2012
Site Web

Re : résolu:assembler deux vidéos mp4

la totalité sad

N'est-il pas étrange de voir les hommes combattre si volontiers pour leur religion et vivre si peu volontiers selon ses préceptes ?
Georg Christoph Lichtenberg

Hors ligne

#34 19-11-2020 08:47:13

golgot200
Membre
Distrib. : Archlinux 2018-02-03
Noyau : 5.11.12-arch1-1
(G)UI : Mate (Strict Minimum)
Inscription : 05-08-2007

Re : résolu:assembler deux vidéos mp4

donnes moi le retour avec mediainfo.
Mais on avance tout de même. Les vidéos sont bien collées, on est bien d'accord ?

Dernière modification par golgot200 (19-11-2020 08:47:48)

Hors ligne

#35 19-11-2020 08:51:02

lagrenouille
Adhérent(e)
Lieu : Toulouse, con !
Distrib. : debian buster - openbsd
Noyau : d'olive
(G)UI : env i3w - openbox_bépo
Inscription : 28-03-2012
Site Web

Re : résolu:assembler deux vidéos mp4

oui elles sont collées

mediainfo 1.mp4



General
Complete name                            : 1.mp4
Format                                   : MPEG-4
Format profile                           : Base Media
Codec ID                                 : isom (isom/iso2/avc1/mp41)
File size                                : 132 KiB
Duration                                 : 3 s 0 ms
Overall bit rate                         : 360 kb/s
Writing application                      : Lavf58.20.100

Video
ID                                       : 1
Format                                   : AVC
Format/Info                              : Advanced Video Codec
Format profile                           : High 4:4:4 Predictive@L3.2
Format settings                          : CABAC / 4 Ref Frames
Format settings, CABAC                   : Yes
Format settings, ReFrames                : 4 frames
Codec ID                                 : avc1
Codec ID/Info                            : Advanced Video Coding
Duration                                 : 3 s 0 ms
Bit rate                                 : 163 kb/s
Width                                    : 1 280 pixels
Height                                   : 858 pixels
Display aspect ratio                     : 3:2
Frame rate mode                          : Constant
Frame rate                               : 25.000 FPS
Chroma subsampling                       : 4:4:4
Bit depth                                : 8 bits
Scan type                                : Progressive
Bits/(Pixel*Frame)                       : 0.006
Stream size                              : 59.6 KiB (45%)
Writing library                          : x264 core 155 r2917 0a84d98
Encoding settings                        : cabac=1 / ref=3 / deblock=1:0:0 / analyse=0x1:0x111 / me=hex / subme=7 / psy=1 / psy_rd=1.00:0.00 / mixed_ref=1 / me_range=16 / chroma_me=1 / trellis=1 / 8x8dct=0 / cqm=0 / deadzone=21,11 / fast_pskip=1 / chroma_qp_offset=4 / threads=6 / lookahead_threads=1 / sliced_threads=0 / nr=0 / decimate=1 / interlaced=0 / bluray_compat=0 / constrained_intra=0 / bframes=3 / b_pyramid=2 / b_adapt=1 / b_bias=0 / direct=1 / weightb=1 / open_gop=0 / weightp=2 / keyint=250 / keyint_min=25 / scenecut=40 / intra_refresh=0 / rc_lookahead=40 / rc=crf / mbtree=1 / crf=23.0 / qcomp=0.60 / qpmin=0 / qpmax=69 / qpstep=4 / ip_ratio=1.40 / aq=1:1.00
Color range                              : Full
Codec configuration box                  : avcC

Audio
ID                                       : 2
Format                                   : AC-3
Format/Info                              : Audio Coding 3
Commercial name                          : Dolby Digital
Codec ID                                 : ac-3
Duration                                 : 2 s 944 ms
Bit rate mode                            : Constant
Bit rate                                 : 192 kb/s
Channel(s)                               : 2 channels
Channel layout                           : L R
Sampling rate                            : 48.0 kHz
Frame rate                               : 31.250 FPS (1536 SPF)
Bit depth                                : 16 bits
Compression mode                         : Lossy
Stream size                              : 69.0 KiB (52%)
Title                                    : Français AC3
Language                                 : French
Service kind                             : Complete Main
Default                                  : Yes
Alternate group                          : 1


.

 mediainfo 2.mp4



General
Complete name                            : 2.mp4
Format                                   : MPEG-4
Format profile                           : Base Media / Version 2
Codec ID                                 : mp42 (isom/iso2/avc1/mp41)
File size                                : 240 MiB
Duration                                 : 1 h 51 min
Overall bit rate                         : 300 kb/s
Movie name                               : vidéoconf
Encoded date                             : UTC 2020-11-18 09:32:48
Tagged date                              : UTC 2020-11-18 09:32:48
Writing application                      : HandBrake 1.2.2 2019022400

Video
ID                                       : 1
Format                                   : AVC
Format/Info                              : Advanced Video Codec
Format profile                           : Main@L4
Format settings                          : CABAC / 4 Ref Frames
Format settings, CABAC                   : Yes
Format settings, ReFrames                : 4 frames
Codec ID                                 : avc1
Codec ID/Info                            : Advanced Video Coding
Duration                                 : 1 h 51 min
Bit rate                                 : 156 kb/s
Width                                    : 1 280 pixels
Height                                   : 858 pixels
Display aspect ratio                     : 3:2
Frame rate mode                          : Variable
Frame rate                               : 30.000 FPS
Minimum frame rate                       : 15.000 FPS
Maximum frame rate                       : 30.000 FPS
Color space                              : YUV
Chroma subsampling                       : 4:2:0
Bit depth                                : 8 bits
Scan type                                : Progressive
Bits/(Pixel*Frame)                       : 0.005
Stream size                              : 125 MiB (52%)
Writing library                          : x264 core 155 r2917 0a84d98
Encoding settings                        : cabac=1 / ref=2 / deblock=1:0:0 / analyse=0x1:0x111 / me=hex / subme=6 / psy=1 / psy_rd=1,00:0,00 / mixed_ref=1 / me_range=16 / chroma_me=1 / trellis=1 / 8x8dct=0 / cqm=0 / deadzone=21,11 / fast_pskip=1 / chroma_qp_offset=-2 / threads=6 / lookahead_threads=1 / sliced_threads=0 / nr=0 / decimate=1 / interlaced=0 / bluray_compat=0 / constrained_intra=0 / bframes=3 / b_pyramid=2 / b_adapt=1 / b_bias=0 / direct=1 / weightb=1 / open_gop=0 / weightp=1 / keyint=300 / keyint_min=30 / scenecut=40 / intra_refresh=0 / rc_lookahead=30 / rc=crf / mbtree=1 / crf=22,0 / qcomp=0,60 / qpmin=0 / qpmax=69 / qpstep=4 / vbv_maxrate=20000 / vbv_bufsize=25000 / crf_max=0,0 / nal_hrd=none / filler=0 / ip_ratio=1,40 / aq=1:1,00
Encoded date                             : UTC 2020-11-18 09:32:48
Tagged date                              : UTC 2020-11-18 09:32:48
Color range                              : Limited
Color primaries                          : BT.709
Transfer characteristics                 : BT.709
Matrix coefficients                      : BT.709
Codec configuration box                  : avcC

Audio
ID                                       : 2
Format                                   : AAC LC
Format/Info                              : Advanced Audio Codec Low Complexity
Codec ID                                 : mp4a-40-2
Duration                                 : 1 h 51 min
Bit rate mode                            : Constant
Bit rate                                 : 132 kb/s
Channel(s)                               : 2 channels
Channel layout                           : L R
Sampling rate                            : 48.0 kHz
Frame rate                               : 46.875 FPS (1024 SPF)
Compression mode                         : Lossy
Stream size                              : 108 MiB (45%)
Title                                    : Stereo
Default                                  : Yes
Alternate group                          : 1
Encoded date                             : UTC 2020-11-18 09:32:48
Tagged date                              : UTC 2020-11-18 09:32:48
 


N'est-il pas étrange de voir les hommes combattre si volontiers pour leur religion et vivre si peu volontiers selon ses préceptes ?
Georg Christoph Lichtenberg

Hors ligne

#36 19-11-2020 08:53:59

golgot200
Membre
Distrib. : Archlinux 2018-02-03
Noyau : 5.11.12-arch1-1
(G)UI : Mate (Strict Minimum)
Inscription : 05-08-2007

Re : résolu:assembler deux vidéos mp4

Non, le mediainfo de ta vidéo de sortie ( le collage) wink

Hors ligne

#37 19-11-2020 08:59:52

lagrenouille
Adhérent(e)
Lieu : Toulouse, con !
Distrib. : debian buster - openbsd
Noyau : d'olive
(G)UI : env i3w - openbox_bépo
Inscription : 28-03-2012
Site Web

Re : résolu:assembler deux vidéos mp4

ah ok

mediainfo FINAL.mp4



General
Complete name                            : FINAL.mp4
Format                                   : MPEG-4
Format profile                           : Base Media
Codec ID                                 : isom (isom/iso2/avc1/mp41)
File size                                : 480 MiB
Duration                                 : 26 h 14 min
Overall bit rate                         : 42.6 kb/s
Writing application                      : Lavf58.20.100

Video
ID                                       : 1
Format                                   : AVC
Format/Info                              : Advanced Video Codec
Format profile                           : Main@L4
Format settings                          : CABAC / 4 Ref Frames
Format settings, CABAC                   : Yes
Format settings, ReFrames                : 4 frames
Codec ID                                 : avc1
Codec ID/Info                            : Advanced Video Coding
Duration                                 : 26 h 14 min
Bit rate                                 : 22.2 kb/s
Width                                    : 1 280 pixels
Height                                   : 858 pixels
Display aspect ratio                     : 3:2
Frame rate mode                          : Variable
Frame rate                               : 4.266 FPS
Minimum frame rate                       : 0.046 FPS
Maximum frame rate                       : 12 800.000 FPS
Color space                              : YUV
Chroma subsampling                       : 4:2:0
Bit depth                                : 8 bits
Scan type                                : Progressive
Bits/(Pixel*Frame)                       : 0.005
Stream size                              : 250 MiB (52%)
Writing library                          : x264 core 155 r2917 0a84d98
Encoding settings                        : cabac=1 / ref=2 / deblock=1:0:0 / analyse=0x1:0x111 / me=hex / subme=6 / psy=1 / psy_rd=1,00:0,00 / mixed_ref=1 / me_range=16 / chroma_me=1 / trellis=1 / 8x8dct=0 / cqm=0 / deadzone=21,11 / fast_pskip=1 / chroma_qp_offset=-2 / threads=6 / lookahead_threads=1 / sliced_threads=0 / nr=0 / decimate=1 / interlaced=0 / bluray_compat=0 / constrained_intra=0 / bframes=3 / b_pyramid=2 / b_adapt=1 / b_bias=0 / direct=1 / weightb=1 / open_gop=0 / weightp=1 / keyint=300 / keyint_min=30 / scenecut=40 / intra_refresh=0 / rc_lookahead=30 / rc=crf / mbtree=1 / crf=22,0 / qcomp=0,60 / qpmin=0 / qpmax=69 / qpstep=4 / vbv_maxrate=20000 / vbv_bufsize=25000 / crf_max=0,0 / nal_hrd=none / filler=0 / ip_ratio=1,40 / aq=1:1,00
Color range                              : Limited
Color primaries                          : BT.709
Transfer characteristics                 : BT.709
Matrix coefficients                      : BT.709
Codec configuration box                  : avcC

Audio
ID                                       : 2
Format                                   : AC-3
Format/Info                              : Audio Coding 3
Commercial name                          : Dolby Digital
Codec ID                                 : ac-3
Duration                                 : 3 h 43 min
Bit rate mode                            : Constant
Bit rate                                 : 192 kb/s
Channel(s)                               : 2 channels
Channel layout                           : L R
Sampling rate                            : 48.0 kHz
Frame rate                               : 31.250 FPS (1536 SPF)
Bit depth                                : 16 bits
Compression mode                         : Lossy
Stream size                              : 216 MiB (45%)
Language                                 : French
Service kind                             : Complete Main
Default                                  : Yes
Alternate group                          : 1
 


.
elle est plus lente aussi

Dernière modification par lagrenouille (19-11-2020 09:01:52)


N'est-il pas étrange de voir les hommes combattre si volontiers pour leur religion et vivre si peu volontiers selon ses préceptes ?
Georg Christoph Lichtenberg

Hors ligne

#38 19-11-2020 09:09:33

golgot200
Membre
Distrib. : Archlinux 2018-02-03
Noyau : 5.11.12-arch1-1
(G)UI : Mate (Strict Minimum)
Inscription : 05-08-2007

Re : résolu:assembler deux vidéos mp4

C'est pas étonnant avec 4.266 FPS hmm

essaies cette commande avec tes deux vidéos ( qui ont les deux du sons )

ffmpeg -i 1.mp4 -i 2.mp4 -filter_complex "[0:v:0] [0:a:0] [1:v:0] [1:a:0] concat=n=2:v=1:a=1 [v] [a]" -map "[v]" -map "[a]" output.mp4



EDIT : Pour en revenir à ton mediainfo FINAL.mp4  on voit tout de même qu'il y a du son !!!


Audio
ID                                       : 2
Format                                   : AC-3
Format/Info                              : Audio Coding 3
Commercial name                          : Dolby Digital
Codec ID                                 : ac-3
Duration                                 : 3 h 43 min
Bit rate mode                            : Constant
Bit rate                                 : 192 kb/s
Channel(s)                               : 2 channels
Channel layout                           : L R
Sampling rate                            : 48.0 kHz
Frame rate                               : 31.250 FPS (1536 SPF)
Bit depth                                : 16 bits
Compression mode                         : Lossy
Stream size                              : 216 MiB (45%)
Language                                 : French
Service kind                             : Complete Main
Default                                  : Yes
Alternate group                          : 1
 



Une vidéo de Duration  : 26 h 14 min !!!!!!!!!!!!!!!
Tu avais bien que 2 vidéos dans le dossier quand tu as lancé ta commande ? hmm
Là, je suis totalement perdu big_smile

Dernière modification par golgot200 (19-11-2020 09:16:42)

Hors ligne

#39 19-11-2020 09:31:14

lagrenouille
Adhérent(e)
Lieu : Toulouse, con !
Distrib. : debian buster - openbsd
Noyau : d'olive
(G)UI : env i3w - openbox_bépo
Inscription : 28-03-2012
Site Web

Re : résolu:assembler deux vidéos mp4

je sais plus, normalement je mets à la corbeille au fur et à mesure

j'attends la fin de la commande, on verra smile

Dernière modification par lagrenouille (19-11-2020 09:34:47)


N'est-il pas étrange de voir les hommes combattre si volontiers pour leur religion et vivre si peu volontiers selon ses préceptes ?
Georg Christoph Lichtenberg

Hors ligne

#40 19-11-2020 09:34:32

golgot200
Membre
Distrib. : Archlinux 2018-02-03
Noyau : 5.11.12-arch1-1
(G)UI : Mate (Strict Minimum)
Inscription : 05-08-2007

Re : résolu:assembler deux vidéos mp4

lagrenouille a écrit :



j'attends la fin de la commande, on verra smile



Tu n'es pas obligé pour les tests. Tu laisses la commande tournée quelques petites minutes et dans le terminal, tu fais un "ctrl + c" wink

Et tu vérifies ton morceaux de vidéo encodée.

Dernière modification par golgot200 (19-11-2020 09:35:29)

Hors ligne

#41 19-11-2020 09:35:49

lagrenouille
Adhérent(e)
Lieu : Toulouse, con !
Distrib. : debian buster - openbsd
Noyau : d'olive
(G)UI : env i3w - openbox_bépo
Inscription : 28-03-2012
Site Web

Re : résolu:assembler deux vidéos mp4

ça travail, laissons le


https://funambule.org/privatebin/?96675 … 9bqemEsmTz



je lis
"deprecated pixel format used, make sure you did set range correctly"

Dernière modification par lagrenouille (19-11-2020 09:43:57)


N'est-il pas étrange de voir les hommes combattre si volontiers pour leur religion et vivre si peu volontiers selon ses préceptes ?
Georg Christoph Lichtenberg

Hors ligne

#42 19-11-2020 10:04:10

lagrenouille
Adhérent(e)
Lieu : Toulouse, con !
Distrib. : debian buster - openbsd
Noyau : d'olive
(G)UI : env i3w - openbox_bépo
Inscription : 28-03-2012
Site Web

Re : résolu:assembler deux vidéos mp4

@golgot200

bravo  à toi, t'as réussi à me rendre cette vidéo correcte
merci de ta perspicacité, et de ta patiente

N'est-il pas étrange de voir les hommes combattre si volontiers pour leur religion et vivre si peu volontiers selon ses préceptes ?
Georg Christoph Lichtenberg

Hors ligne

#43 19-11-2020 10:15:45

golgot200
Membre
Distrib. : Archlinux 2018-02-03
Noyau : 5.11.12-arch1-1
(G)UI : Mate (Strict Minimum)
Inscription : 05-08-2007

Re : résolu:assembler deux vidéos mp4

big_smile big_smile big_smile

Un plaisir.

Dis moi, la commande pour joindre faut-il la mettre dans le tuto à la place de l'autre ?

Et rappelles toi, un son blanc lol lol lol

Dernière modification par golgot200 (19-11-2020 10:16:52)

Hors ligne

#44 19-11-2020 10:20:41

lagrenouille
Adhérent(e)
Lieu : Toulouse, con !
Distrib. : debian buster - openbsd
Noyau : d'olive
(G)UI : env i3w - openbox_bépo
Inscription : 28-03-2012
Site Web

Re : résolu:assembler deux vidéos mp4

Dis moi, la commande pour joindre faut-il la mettre dans le tuto à la place de l'autre ?



j'aurai tendance à dire oui

Et rappelles toi, un son blanc


là j'avoue que ça me dépasse ces histoires de son et de vidéo, c'est pas du tout prêt à entrer dans ma caboche tongue


N'est-il pas étrange de voir les hommes combattre si volontiers pour leur religion et vivre si peu volontiers selon ses préceptes ?
Georg Christoph Lichtenberg

Hors ligne

#45 19-11-2020 10:41:09

golgot200
Membre
Distrib. : Archlinux 2018-02-03
Noyau : 5.11.12-arch1-1
(G)UI : Mate (Strict Minimum)
Inscription : 05-08-2007

Re : résolu:assembler deux vidéos mp4

lagrenouille a écrit :

Dis moi, la commande pour joindre faut-il la mettre dans le tuto à la place de l'autre ?



j'aurai tendance à dire oui



C'est fait wink

@++

Hors ligne

#46 24-11-2020 09:26:39

lagrenouille
Adhérent(e)
Lieu : Toulouse, con !
Distrib. : debian buster - openbsd
Noyau : d'olive
(G)UI : env i3w - openbox_bépo
Inscription : 28-03-2012
Site Web

Re : résolu:assembler deux vidéos mp4

bien que la première partie soit résolu, j'ai un autre problème
j'ai une partie de la vidéo à enlever, de 00:00:04 à 00:50:56

j'en aurai 3 autres, mais je suppose que ce sera la même commande

je réussi juste à extraire cette partie et à en faire une petite vidéo, qui contient que la partie demandée( :00:00:04 à 00:50:56)

mais c'est pas ça que je veux, c'est la virer cette partie de la vidéo, j'ai essayé kdenlive, pas moyen, j'y pompe rien.

alors si vous savez faire ça avec ffmpeg, je suis toujours preneur

N'est-il pas étrange de voir les hommes combattre si volontiers pour leur religion et vivre si peu volontiers selon ses préceptes ?
Georg Christoph Lichtenberg

Hors ligne

#47 24-11-2020 09:52:41

Croutons
Membre
Distrib. : Debian10 Buster
Noyau : Linux 4.19.0-12-amd64
(G)UI : Mate
Inscription : 16-12-2016

Re : résolu:assembler deux vidéos mp4

Hello

lagrenouille a écrit :

bien que la première partie soit résolu, j'ai un autre problème
j'ai une partie de la vidéo à enlever, de 00:00:04 à 00:50:56


avec LossLessCut en application Appimage
ou Vidcutter
J'ai essayé Vidcutter vite fais je ne saurais apporté un avis
j'utilise LossLessCut qui coupe les parties a jeté , il y le mode de fonctionnement inverse (selection des parties a garder)
par défaut la coupe se fais sur une image clé
avantage : pas de réencodage (quelque seconde pour sortir le fichier final), inconvénient la coupe n'est pas précise a l'image pres

2éme mode coupe précise
avantage on zoom sur la vidéo et on peux couper a l'image voulu, inconvénient le fichier de sortie devra être réencodé
Ce qui est cool c'est que on peux faire des coupe meme en plein milieu de la vidéo le logiciel s'occupe de tout
Par défaut un seul fichier final, mais on peux choisir de garder les parties intermédiaire

Dernière modification par Croutons (24-11-2020 09:53:06)


-->les cahiers du debutant<--      WikiDF-->Découvrir les principales commandes Linux<--
L' expérience, c'est le nom que chacun donne à ses erreurs. Oscar Wilde

En ligne

#48 24-11-2020 10:05:18

lagrenouille
Adhérent(e)
Lieu : Toulouse, con !
Distrib. : debian buster - openbsd
Noyau : d'olive
(G)UI : env i3w - openbox_bépo
Inscription : 28-03-2012
Site Web

Re : résolu:assembler deux vidéos mp4

hello ! smile

merci, je verrai ça un peu plus tard
direction hosto, je dois faire des examen au scanner, voir si les oreilles et les fesses sont toujours à la bonne place, si ça va plus, je verrai avec ffmpeg pour remettre tout ça en place big_smile

LossLessCut  et  Vidcutter, c'est  quel paquet deb qu'il faut installé ?

N'est-il pas étrange de voir les hommes combattre si volontiers pour leur religion et vivre si peu volontiers selon ses préceptes ?
Georg Christoph Lichtenberg

Hors ligne

#49 24-11-2020 12:03:34

Toulibre
Adhérent(e)
Lieu : Ganges, Cévennes
Distrib. : Debian 10.9
Noyau : Linux 4.19.0-16-amd64
(G)UI : xfce-thunar
Inscription : 10-08-2020
Site Web

Re : résolu:assembler deux vidéos mp4

Bonjour, Pitivi est simple d'utilisation pour ce genre de manip, il est dans les paquets. (oups vu en 1ers commentaires tongue)

Dernière modification par Toulibre (24-11-2020 12:06:06)

Hors ligne

#50 24-11-2020 12:13:21

Croutons
Membre
Distrib. : Debian10 Buster
Noyau : Linux 4.19.0-12-amd64
(G)UI : Mate
Inscription : 16-12-2016

Re : résolu:assembler deux vidéos mp4

lagrenouille a écrit :

LossLessCut  et  Vidcutter, c'est  quel paquet deb qu'il faut installé ?


pas de paquet deb dispo sad
Il faut utiliser Appimage
https://github.com/mifi/lossless-cut/re … x.AppImage
rendre le fichier exécutable

chmod +x ~/Téléchargements/LosslessCut-linux.AppImage



puis pour lancer

LosslessCut-linux.AppImage --no-sandbox



mon lanceur sur le Bureau

cat ~/Bureau/LosslessCut.desktop


[Desktop Entry]
Version=1.0
Type=Application
Terminal=false
Icon=stock_cut
Icon[fr_FR]=stock_cut
Name[fr_FR]=LosslessCut
Comment[fr_FR]=couper des partie d'une vidéo sans réencodage
Exec=/home/stephane/Téléchargements/LosslessCut-linux.AppImage --no-sandbox
Name=LosslessCut
Comment=couper des partie d'une vidéo sans réencodage
GenericName[fr_FR.UTF-8]=couper des parties d'une vidéo sans réencodage
Comment[fr_FR.UTF-8]=AppImage
 



Et pour Vidcutter pareil
Appimage , Fatpack ou snap

Dernière modification par Croutons (24-11-2020 12:14:45)


-->les cahiers du debutant<--      WikiDF-->Découvrir les principales commandes Linux<--
L' expérience, c'est le nom que chacun donne à ses erreurs. Oscar Wilde

En ligne

Pied de page des forums