Debian Debian-France Debian-Facile Debian-fr.org Debian-fr.xyz Debian ? Communautés

Debian-facile

Bienvenue sur Debian-Facile, site d'aide pour les nouveaux utilisateurs de Debian.

Vous n'êtes pas identifié(e).

#1 08-09-2021 09:07:39

lherbaux
Membre
Distrib. : debian 10
Noyau : Linux 4.9.0-8-amd64
(G)UI : mate
Inscription : 23-12-2010

mp3 scratches sur android

bonjour,
j'ai un fichier mp3, qui fonctionne sur pc mais pas sur mon téléphone android?
j'entend comme des scratches très cour.
comment puis-je corriger cela ?
tous mes autres fichiers mp3 fonctionnent sur mon téléphone.
merci d'avance.

Hors ligne

#2 08-09-2021 10:16:35

otyugh
CA Debian-Facile
Lieu : Quimperlé/Arzano
Distrib. : Debian Stable
Inscription : 20-09-2016
Site Web

Re : mp3 scratches sur android

Tu pourrais essayer de les réencorder. Plein de logiciels peuvent faire ça, en ligne de commande ça donne

sudo apt install ffmpeg
ffmpeg -i monfichier_douteux.mp3 monfichier_reencode.mp3



Sinon je vois qu'on a le paquet checkmp3 qui semble prometteur pour vérifier les mp3 (mais je connais point !)

mp3check/stable 0.8.7-3.1 amd64
  outil de contrôle de cohérence de fichiers MP3

Dernière modification par otyugh (08-09-2021 10:24:40)


datalove-datalove-s1-2.png agendadulibre-lagendadulibre.png arzinfo-arzinfo.png

En ligne

#3 09-09-2021 09:10:24

lherbaux
Membre
Distrib. : debian 10
Noyau : Linux 4.9.0-8-amd64
(G)UI : mate
Inscription : 23-12-2010

Re : mp3 scratches sur android

j'ai fait (hier soir) avec vbrfix, ça marché mais le aujourd'hui, le fichier mp3 ne refonctionne pas.

Hors ligne

#4 10-09-2021 22:17:17

lherbaux
Membre
Distrib. : debian 10
Noyau : Linux 4.9.0-8-amd64
(G)UI : mate
Inscription : 23-12-2010

Re : mp3 scratches sur android

otyugh a écrit :

Tu pourrais essayer de les réencorder. Plein de logiciels peuvent faire ça, en ligne de commande ça donne

sudo apt install ffmpeg
ffmpeg -i monfichier_douteux.mp3 monfichier_reencode.mp3



bonjour,
c'est ce que j'ai essayé, mais ça met la dernière ligne en rouge :

ffmpeg Foo\ Fighters\ Greatest\ hits2.mp3 Foo\ Fighters\ Greatest\ hits.mp3
ffmpeg version 4.1.6-1~deb10u1 Copyright (c) 2000-2020 the FFmpeg developers
  built with gcc 8 (Debian 8.3.0-6)
  configuration: --prefix=/usr --extra-version='1~deb10u1' --toolchain=hardened --libdir=/usr/lib/x86_64-linux-gnu --incdir=/usr/include/x86_64-linux-gnu --arch=amd64 --enable-gpl --disable-stripping --enable-avresample --disable-filter=resample --enable-avisynth --enable-gnutls --enable-ladspa --enable-libaom --enable-libass --enable-libbluray --enable-libbs2b --enable-libcaca --enable-libcdio --enable-libcodec2 --enable-libflite --enable-libfontconfig --enable-libfreetype --enable-libfribidi --enable-libgme --enable-libgsm --enable-libjack --enable-libmp3lame --enable-libmysofa --enable-libopenjpeg --enable-libopenmpt --enable-libopus --enable-libpulse --enable-librsvg --enable-librubberband --enable-libshine --enable-libsnappy --enable-libsoxr --enable-libspeex --enable-libssh --enable-libtheora --enable-libtwolame --enable-libvidstab --enable-libvorbis --enable-libvpx --enable-libwavpack --enable-libwebp --enable-libx265 --enable-libxml2 --enable-libxvid --enable-libzmq --enable-libzvbi --enable-lv2 --enable-omx --enable-openal --enable-opengl --enable-sdl2 --enable-libdc1394 --enable-libdrm --enable-libiec61883 --enable-chromaprint --enable-frei0r --enable-libx264 --enable-shared
  WARNING: library configuration mismatch
  avcodec     configuration: --prefix=/usr --extra-version='1~deb10u1' --toolchain=hardened --libdir=/usr/lib/x86_64-linux-gnu --incdir=/usr/include/x86_64-linux-gnu --arch=amd64 --enable-gpl --disable-stripping --enable-avresample --disable-filter=resample --enable-avisynth --enable-gnutls --enable-ladspa --enable-libaom --enable-libass --enable-libbluray --enable-libbs2b --enable-libcaca --enable-libcdio --enable-libcodec2 --enable-libflite --enable-libfontconfig --enable-libfreetype --enable-libfribidi --enable-libgme --enable-libgsm --enable-libjack --enable-libmp3lame --enable-libmysofa --enable-libopenjpeg --enable-libopenmpt --enable-libopus --enable-libpulse --enable-librsvg --enable-librubberband --enable-libshine --enable-libsnappy --enable-libsoxr --enable-libspeex --enable-libssh --enable-libtheora --enable-libtwolame --enable-libvidstab --enable-libvorbis --enable-libvpx --enable-libwavpack --enable-libwebp --enable-libx265 --enable-libxml2 --enable-libxvid --enable-libzmq --enable-libzvbi --enable-lv2 --enable-omx --enable-openal --enable-opengl --enable-sdl2 --enable-libdc1394 --enable-libdrm --enable-libiec61883 --enable-chromaprint --enable-frei0r --enable-libx264 --enable-shared --enable-version3 --disable-doc --disable-programs --enable-liblensfun --enable-libopencore_amrnb --enable-libopencore_amrwb --enable-libtesseract --enable-libvo_amrwbenc
  libavutil      56. 22.100 / 56. 22.100
  libavcodec     58. 35.100 / 58. 35.100
  libavformat    58. 20.100 / 58. 20.100
  libavdevice    58.  5.100 / 58.  5.100
  libavfilter     7. 40.101 /  7. 40.101
  libavresample   4.  0.  0 /  4.  0.  0
  libswscale      5.  3.100 /  5.  3.100
  libswresample   3.  3.100 /  3.  3.100
  libpostproc    55.  3.100 / 55.  3.100
Output #0, mp3, to 'Foo Fighters Greatest hits2.mp3':
Output file #0 does not contain any stream

Hors ligne

#5 10-09-2021 22:33:06

otyugh
CA Debian-Facile
Lieu : Quimperlé/Arzano
Distrib. : Debian Stable
Inscription : 20-09-2016
Site Web

Re : mp3 scratches sur android

Output #0, mp3, to 'Foo Fighters Greatest hits2.mp3':
Output file #0 does not contain any streama


Ben ça veut dire que ton fichier n'est pas qu'un peu corrompu du coup sad
Tu peux l'ouvrir dans, disons, audacity ? VLC aussi peut réencoder de l'audio/vidéo. Enfin personnellement ffmpeg m'a toujours sorti d'affaire donc j'en ai jamais eu besoin, je ne sais pas si audacity/vlc ont un fonctionnement plus "tolérant" envers les fichiers problématiques.

Dernière modification par otyugh (10-09-2021 22:35:30)


datalove-datalove-s1-2.png agendadulibre-lagendadulibre.png arzinfo-arzinfo.png

En ligne

#6 12-09-2021 20:47:11

lherbaux
Membre
Distrib. : debian 10
Noyau : Linux 4.9.0-8-amd64
(G)UI : mate
Inscription : 23-12-2010

Re : mp3 scratches sur android

j'ai installer mp3check , mais comment fonctionne-t-il ?

Hors ligne

#7 12-09-2021 20:51:43

golgot200
Membre
Distrib. : Archlinux 2018-02-03
Noyau : 5.14.12-arch1-1
(G)UI : Mate (Strict Minimum)
Inscription : 05-08-2007

Re : mp3 scratches sur android

Bonsoir,


apt install mediainfo
 



mediainfo "monfichier_douteux.mp3"



pour voir ce qu'il a dans le ventre wink

Exemple d'infos sur un mp3 :


General
Complete name                            : Alarm Declaration.MP3
Format                                   : MPEG Audio
File size                                : 2.91 MiB
Duration                                 : 3 min 10 s
Overall bit rate mode                    : Constant
Overall bit rate                         : 128 kb/s
Album                                    : Declaration
Track name                               : Tell Me
Track name/Position                      : 00
Performer                                : The Alarm
Genre                                    : 80's

Audio
Format                                   : MPEG Audio
Format version                           : Version 1
Format profile                           : Layer 3
Format settings                          : Joint stereo / MS Stereo
Duration                                 : 3 min 10 s
Bit rate mode                            : Constant
Bit rate                                 : 128 kb/s
Channel(s)                               : 2 channels
Sampling rate                            : 44.1 kHz
Frame rate                               : 38.281 FPS (1152 SPF)
Compression mode                         : Lossy
Stream size                              : 2.91 MiB (100%)
 



EDIT:
Il serait  peut-être préférable de le repasser en WAV avant un éventuel réencodage.

Dernière modification par golgot200 (12-09-2021 20:57:34)

Hors ligne

#8 12-09-2021 20:55:36

lherbaux
Membre
Distrib. : debian 10
Noyau : Linux 4.9.0-8-amd64
(G)UI : mate
Inscription : 23-12-2010

Re : mp3 scratches sur android

mediainfo Foo\ Fighters\ Greatest\ hits2.mp3
General
Complete name                            : Foo Fighters Greatest hits2.mp3
Format                                   : MPEG Audio
File size                                : 88.0 MiB
Duration                                 : 2 h 7 min
Overall bit rate mode                    : Variable
Overall bit rate                         : 96.5 kb/s
Track name                               : Foo Fighters Greatest hits
Performer                                : Best of Foo Fighters
Writing library                          : LAME3.100
Comment                                  : www.mediahuman.com / www.mediahuman.com
major_brand                              : dash
Software                                 : Lavf57.71.100
minor_version                            : 0
compatible_brands                        : iso6mp41

Audio
Format                                   : MPEG Audio
Format version                           : Version 1
Format profile                           : Layer 3
Format settings                          : Joint stereo / MS Stereo
Duration                                 : 2 h 7 min
Bit rate mode                            : Variable
Bit rate                                 : 96.0 kb/s
Channel(s)                               : 2 channels
Sampling rate                            : 32.0 kHz
Frame rate                               : 27.778 FPS (1152 SPF)
Compression mode                         : Lossy
Stream size                              : 88.0 MiB (100%)
Writing library                          : LAME3.100

Hors ligne

#9 12-09-2021 21:04:31

golgot200
Membre
Distrib. : Archlinux 2018-02-03
Noyau : 5.14.12-arch1-1
(G)UI : Mate (Strict Minimum)
Inscription : 05-08-2007

Re : mp3 scratches sur android

Ok,

Dans un premier temps :

ffmpeg -i hits2.mp3 -acodec pcm_s16le -ar 44100 retour.wav



Tu me posteras les infos du terminal.

Hors ligne

#10 12-09-2021 21:09:00

lherbaux
Membre
Distrib. : debian 10
Noyau : Linux 4.9.0-8-amd64
(G)UI : mate
Inscription : 23-12-2010

Re : mp3 scratches sur android

ffmpeg -i hits2.mp3 -acodec pcm_s16le -ar 44100 retour.wav
ffmpeg version 4.1.6-1~deb10u1 Copyright (c) 2000-2020 the FFmpeg developers
  built with gcc 8 (Debian 8.3.0-6)
  configuration: --prefix=/usr --extra-version='1~deb10u1' --toolchain=hardened --libdir=/usr/lib/x86_64-linux-gnu --incdir=/usr/include/x86_64-linux-gnu --arch=amd64 --enable-gpl --disable-stripping --enable-avresample --disable-filter=resample --enable-avisynth --enable-gnutls --enable-ladspa --enable-libaom --enable-libass --enable-libbluray --enable-libbs2b --enable-libcaca --enable-libcdio --enable-libcodec2 --enable-libflite --enable-libfontconfig --enable-libfreetype --enable-libfribidi --enable-libgme --enable-libgsm --enable-libjack --enable-libmp3lame --enable-libmysofa --enable-libopenjpeg --enable-libopenmpt --enable-libopus --enable-libpulse --enable-librsvg --enable-librubberband --enable-libshine --enable-libsnappy --enable-libsoxr --enable-libspeex --enable-libssh --enable-libtheora --enable-libtwolame --enable-libvidstab --enable-libvorbis --enable-libvpx --enable-libwavpack --enable-libwebp --enable-libx265 --enable-libxml2 --enable-libxvid --enable-libzmq --enable-libzvbi --enable-lv2 --enable-omx --enable-openal --enable-opengl --enable-sdl2 --enable-libdc1394 --enable-libdrm --enable-libiec61883 --enable-chromaprint --enable-frei0r --enable-libx264 --enable-shared
  WARNING: library configuration mismatch
  avcodec     configuration: --prefix=/usr --extra-version='1~deb10u1' --toolchain=hardened --libdir=/usr/lib/x86_64-linux-gnu --incdir=/usr/include/x86_64-linux-gnu --arch=amd64 --enable-gpl --disable-stripping --enable-avresample --disable-filter=resample --enable-avisynth --enable-gnutls --enable-ladspa --enable-libaom --enable-libass --enable-libbluray --enable-libbs2b --enable-libcaca --enable-libcdio --enable-libcodec2 --enable-libflite --enable-libfontconfig --enable-libfreetype --enable-libfribidi --enable-libgme --enable-libgsm --enable-libjack --enable-libmp3lame --enable-libmysofa --enable-libopenjpeg --enable-libopenmpt --enable-libopus --enable-libpulse --enable-librsvg --enable-librubberband --enable-libshine --enable-libsnappy --enable-libsoxr --enable-libspeex --enable-libssh --enable-libtheora --enable-libtwolame --enable-libvidstab --enable-libvorbis --enable-libvpx --enable-libwavpack --enable-libwebp --enable-libx265 --enable-libxml2 --enable-libxvid --enable-libzmq --enable-libzvbi --enable-lv2 --enable-omx --enable-openal --enable-opengl --enable-sdl2 --enable-libdc1394 --enable-libdrm --enable-libiec61883 --enable-chromaprint --enable-frei0r --enable-libx264 --enable-shared --enable-version3 --disable-doc --disable-programs --enable-liblensfun --enable-libopencore_amrnb --enable-libopencore_amrwb --enable-libtesseract --enable-libvo_amrwbenc
  libavutil      56. 22.100 / 56. 22.100
  libavcodec     58. 35.100 / 58. 35.100
  libavformat    58. 20.100 / 58. 20.100
  libavdevice    58.  5.100 / 58.  5.100
  libavfilter     7. 40.101 /  7. 40.101
  libavresample   4.  0.  0 /  4.  0.  0
  libswscale      5.  3.100 /  5.  3.100
  libswresample   3.  3.100 /  3.  3.100
  libpostproc    55.  3.100 / 55.  3.100
hits2.mp3: No such file or directory

Hors ligne

#11 12-09-2021 21:11:14

golgot200
Membre
Distrib. : Archlinux 2018-02-03
Noyau : 5.14.12-arch1-1
(G)UI : Mate (Strict Minimum)
Inscription : 05-08-2007

Re : mp3 scratches sur android


hits2.mp3: No such file or directory
 



Tu n'es pas dans le dossier où se trouve ton hits2.mp3 wink

Dernière modification par golgot200 (12-09-2021 21:11:42)

Hors ligne

#12 12-09-2021 21:22:56

golgot200
Membre
Distrib. : Archlinux 2018-02-03
Noyau : 5.14.12-arch1-1
(G)UI : Mate (Strict Minimum)
Inscription : 05-08-2007

Re : mp3 scratches sur android

Je pense qu'il est là le problème :


major_brand                              : dash
compatible_brands                        : iso6mp41
 



C'est bien un mp3 ton fichier ?

EDIT:

Regarde ce post :

https://superuser.com/questions/1024611 … me-devices

Dernière modification par golgot200 (12-09-2021 21:24:23)

Hors ligne

#13 13-09-2021 10:36:23

golgot200
Membre
Distrib. : Archlinux 2018-02-03
Noyau : 5.14.12-arch1-1
(G)UI : Mate (Strict Minimum)
Inscription : 05-08-2007

Re : mp3 scratches sur android

Bonjour,

j'ai trouvé un fichier mp3 qui à mon avis est une mauvaise conversion d'un fichier m4a ( venant sûrement de Youtube ou un de ces convertisseurs foireux)
Ce m4a à une entête comme on peut le voir avec mediainfo :


General
Complete name                            : base.m4a
Format                                   : dash
Codec ID                                 : dash (iso6/mp41)
File size                                : 9.14 MiB
Duration                                 : 5 min 0 s
Overall bit rate                         : 255 kb/s
Encoded date                             : UTC 2014-03-07 12:57:43
Tagged date                              : UTC 2014-03-07 12:57:43

Audio
ID                                       : 1
Format                                   : AAC LC
Format/Info                              : Advanced Audio Codec Low Complexity
Codec ID                                 : mp4a-40-2
Duration                                 : 5 min 0 s
Bit rate                                 : 254 kb/s
Channel(s)                               : 2 channels
Channel layout                           : L R
Sampling rate                            : 44.1 kHz
Frame rate                               : 43.066 FPS (1024 SPF)
Compression mode                         : Lossy
Stream size                              : 9.09 MiB (99%)
Encoded date                             : UTC 2014-03-07 12:57:43
Tagged date                              : UTC 2014-03-07 12:57:43
 



Si on le converti directement de m4a vers mp3, mediainfo nous indique :
( le même cas de figure que toi avec ton fichier )


General
Complete name                            : output-file.mp3
Format                                   : MPEG Audio
File size                                : 6.88 MiB
Duration                                 : 5 min 0 s
Overall bit rate mode                    : Constant
Overall bit rate                         : 192 kb/s
Writing library                          : LAME3.100
major_brand                              : dash
minor_version                            : 0
compatible_brands                        : iso6mp41

Audio
Format                                   : MPEG Audio
Format version                           : Version 1
Format profile                           : Layer 3
Format settings                          : Joint stereo
Duration                                 : 5 min 0 s
Bit rate mode                            : Constant
Bit rate                                 : 192 kb/s
Channel(s)                               : 2 channels
Sampling rate                            : 44.1 kHz
Frame rate                               : 38.281 FPS (1152 SPF)
Compression mode                         : Lossy
Stream size                              : 6.88 MiB (100%)
Writing library                          : LAME3.100

 



On voit que l'entête est toujours présente, c'est pas clean.

Donc je passe ce "mp3" en Wav; mediainfo me donne donc :


General
Complete name                            : retour.wav
Format                                   : Wave
File size                                : 50.6 MiB
Duration                                 : 5 min 0 s
Overall bit rate mode                    : Constant
Overall bit rate                         : 1 411 kb/s
Writing application                      : Lavf58.76.100

Audio
Format                                   : PCM
Format settings                          : Little / Signed
Codec ID                                 : 1
Duration                                 : 5 min 0 s
Bit rate mode                            : Constant
Bit rate                                 : 1 411.2 kb/s
Channel(s)                               : 2 channels
Sampling rate                            : 44.1 kHz
Bit depth                                : 16 bits
Stream size                              : 50.6 MiB (100%)
 



Puis le Wav vers un mp3 nettoyé, mediainfo me donne :


General
Complete name                            : fichier_mp3_clean.mp3
Format                                   : MPEG Audio
File size                                : 6.88 MiB
Duration                                 : 5 min 0 s
Overall bit rate mode                    : Constant
Overall bit rate                         : 192 kb/s
Writing library                          : LAME3.100

Audio
Format                                   : MPEG Audio
Format version                           : Version 1
Format profile                           : Layer 3
Format settings                          : Joint stereo
Duration                                 : 5 min 0 s
Bit rate mode                            : Constant
Bit rate                                 : 192 kb/s
Channel(s)                               : 2 channels
Sampling rate                            : 44.1 kHz
Frame rate                               : 38.281 FPS (1152 SPF)
Compression mode                         : Lossy
Stream size                              : 6.88 MiB (100%)
Writing library                          : LAME3.100
 



Voilà, je ne peux pas t'en dire plus. smile

PS: pour ma conversion de fichiers, je passe toujours par un retour sur Wav avec de reconvertir vers un autre format. On évite souvent des fichiers foireux.
La seule contrainte, ce que tu perdras d'éventuels tags dans ton fichier en le repassant en Wav.

Dernière modification par golgot200 (13-09-2021 10:49:05)

Hors ligne

#14 14-09-2021 09:08:16

lherbaux
Membre
Distrib. : debian 10
Noyau : Linux 4.9.0-8-amd64
(G)UI : mate
Inscription : 23-12-2010

Re : mp3 scratches sur android

j'ai convertie le fichier en wav, puis en mp3. mais ça fait pareil sur mon téléphone.

Hors ligne

Pied de page des forums