Debian-facile

Bienvenue sur Debian-Facile, site d'aide pour les nouveaux utilisateurs de Debian.

Vous n'êtes pas identifié(e).

#1 02-10-2020 18:19:49

Caribou22
CA Debian-Facile
Lieu : 22, Côtes d'Armor, Bretagne
Distrib. : Debian Stable
Noyau : Sans pépins
(G)UI : Xfce, Gnome
Inscription : 10-11-2014
Site Web

Gravure de DVD lisible par lecteur DVD

Bonsoir smile
J'ai numérisé des VHS sous forme de fichiers MP4 et j'aimerais graver ces films sur des DVD, afin que l'on puisse les lire dans n'importe quel lecteur DVD.

J'aurais aimé savoir si certains d'entre vous ont déjà fait ça, et avec quels logiciels ?

Car j'ai tenté avec deux logiciels libres : Devede (sous Debian) et DVDstyler (sous Windows 10...), et aucun des deux n'a pour le moment fonctionné.
-Devede génère d'abord une ISO, et j'ai un échec pendant la création de l'ISO à chaque fois. (Et l'emplacement où est crée l'ISO ne manque pas de place.)
Un exemple de log :

Static data:

FFProbe JSON data: {
    "streams": [
        {
            "index": 0,
            "codec_name": "h264",
            "codec_long_name": "H.264 / AVC / MPEG-4 AVC / MPEG-4 part 10",
            "profile": "High",
            "codec_type": "video",
            "codec_time_base": "1/50",
            "codec_tag_string": "avc1",
            "codec_tag": "0x31637661",
            "width": 768,
            "height": 576,
            "coded_width": 768,
            "coded_height": 576,
            "has_b_frames": 2,
            "sample_aspect_ratio": "1:1",
            "display_aspect_ratio": "4:3",
            "pix_fmt": "yuv420p",
            "level": 31,
            "color_range": "tv",
            "color_space": "bt470bg",
            "color_transfer": "smpte170m",
            "chroma_location": "left",
            "refs": 1,
            "is_avc": "true",
            "nal_length_size": "4",
            "r_frame_rate": "25/1",
            "avg_frame_rate": "25/1",
            "time_base": "1/12800",
            "start_pts": 0,
            "start_time": "0.000000",
            "duration_ts": 61491712,
            "duration": "4804.040000",
            "bit_rate": "3046078",
            "bits_per_raw_sample": "8",
            "nb_frames": "120101",
            "disposition": {
                "default": 1,
                "dub": 0,
                "original": 0,
                "comment": 0,
                "lyrics": 0,
                "karaoke": 0,
                "forced": 0,
                "hearing_impaired": 0,
                "visual_impaired": 0,
                "clean_effects": 0,
                "attached_pic": 0,
                "timed_thumbnails": 0
            },
            "tags": {
                "language": "und",
                "handler_name": "VideoHandler"
            }
        },
        {
            "index": 1,
            "codec_name": "aac",
            "codec_long_name": "AAC (Advanced Audio Coding)",
            "profile": "LC",
            "codec_type": "audio",
            "codec_time_base": "1/48000",
            "codec_tag_string": "mp4a",
            "codec_tag": "0x6134706d",
            "sample_fmt": "fltp",
            "sample_rate": "48000",
            "channels": 2,
            "channel_layout": "stereo",
            "bits_per_sample": 0,
            "r_frame_rate": "0/0",
            "avg_frame_rate": "0/0",
            "time_base": "1/48000",
            "start_pts": 0,
            "start_time": "0.000000",
            "duration_ts": 230594544,
            "duration": "4804.053000",
            "bit_rate": "160058",
            "max_bit_rate": "160058",
            "nb_frames": "225191",
            "disposition": {
                "default": 1,
                "dub": 0,
                "original": 0,
                "comment": 0,
                "lyrics": 0,
                "karaoke": 0,
                "forced": 0,
                "hearing_impaired": 0,
                "visual_impaired": 0,
                "clean_effects": 0,
                "attached_pic": 0,
                "timed_thumbnails": 0
            },
            "tags": {
                "language": "und",
                "handler_name": "SoundHandler"
            }
        }
    ]
}

Getting data for /media/quentin/2A58AE9F16A70B2F/Cassettes/Mariage 1993.mp4 with ffprobe
Estimated length: 4804; Resolution: 768x576
FFProbe JSON data: {
    "streams": [
        {
            "index": 0,
            "codec_name": "h264",
            "codec_long_name": "H.264 / AVC / MPEG-4 AVC / MPEG-4 part 10",
            "codec_type": "video",
            "codec_time_base": "39986029/1996432426",
            "codec_tag_string": "avc1",
            "codec_tag": "0x31637661",
            "width": 640,
            "height": 480,
            "coded_width": 640,
            "coded_height": 480,
            "has_b_frames": 4,
            "sample_aspect_ratio": "1:1",
            "display_aspect_ratio": "4:3",
            "level": -99,
            "chroma_location": "left",
            "refs": 1,
            "is_avc": "true",
            "nal_length_size": "4",
            "r_frame_rate": "25/1",
            "avg_frame_rate": "998216213/39986029",
            "time_base": "1/90000",
            "start_pts": 481140,
            "start_time": "5.346000",
            "duration_ts": 336946723,
            "duration": "3743.852478",
            "bit_rate": "1243941",
            "nb_frames": "93462",
            "disposition": {
                "default": 1,
                "dub": 0,
                "original": 0,
                "comment": 0,
                "lyrics": 0,
                "karaoke": 0,
                "forced": 0,
                "hearing_impaired": 0,
                "visual_impaired": 0,
                "clean_effects": 0,
                "attached_pic": 0,
                "timed_thumbnails": 0
            },
            "tags": {
                "language": "eng",
                "handler_name": "VideoHandler"
            }
        },
        {
            "index": 1,
            "codec_name": "mp2",
            "codec_long_name": "MP2 (MPEG audio layer 2)",
            "codec_type": "audio",
            "codec_time_base": "1/44100",
            "codec_tag_string": "mp4a",
            "codec_tag": "0x6134706d",
            "sample_fmt": "fltp",
            "sample_rate": "44100",
            "channels": 2,
            "channel_layout": "stereo",
            "bits_per_sample": 0,
            "r_frame_rate": "0/0",
            "avg_frame_rate": "0/0",
            "time_base": "1/44100",
            "start_pts": 882,
            "start_time": "0.020000",
            "duration_ts": 165330983,
            "duration": "3749.001882",
            "bit_rate": "127693",
            "max_bit_rate": "127700",
            "nb_frames": "143502",
            "disposition": {
                "default": 1,
                "dub": 0,
                "original": 0,
                "comment": 0,
                "lyrics": 0,
                "karaoke": 0,
                "forced": 0,
                "hearing_impaired": 0,
                "visual_impaired": 0,
                "clean_effects": 0,
                "attached_pic": 0,
                "timed_thumbnails": 0
            },
            "tags": {
                "language": "eng",
                "handler_name": "SoundHandler"
            }
        }
    ]
}

Getting data for /media/quentin/2A58AE9F16A70B2F/Cassettes/Année 1999 - Johan Solène Emeline - Baptême Johan (21-11-1999) - Noël Spectacle école (19-12-1999).mp4 with ffprobe
Estimated length: 3743; Resolution: 640x480


Dynamic data:

Converting Année 1999 - Johan Solène Emeline - Baptême Johan (21-11-1999) - Noël Spectacle école (19-12-1999)


Launching: ffmpeg -i /media/quentin/2A58AE9F16A70B2F/Cassettes/Année 1999 - Johan Solène Emeline - Baptême Johan (21-11-1999) - Noël Spectacle école (19-12-1999).mp4 -i /media/quentin/2A58AE9F16A70B2F/Cassettes/Année 1999 - Johan Solène Emeline - Baptême Johan (21-11-1999) - Noël Spectacle école (19-12-1999).mp4 -map 1:0 -map 0:1 -vf scale=704:576 -y -target pal-dvd -sn -g 12 -bf 2 -strict 1 -ac 2 -aspect 1.3333333333333333 -s 704x576 -trellis 1 -mbd 2 -b:a 224k -b:v 5000k /media/quentin/2A58AE9F16A70B2F/Cassettes/DVD/1999/movies/movie_0.mpg


ffmpeg version 4.1.6-1~deb10u1 Copyright (c) 2000-2020 the FFmpeg developers
  built with gcc 8 (Debian 8.3.0-6)
  configuration: --prefix=/usr --extra-version='1~deb10u1' --toolchain=hardened --libdir=/usr/lib/x86_64-linux-gnu --incdir=/usr/include/x86_64-linux-gnu --arch=amd64 --enable-gpl --disable-stripping --enable-avresample --disable-filter=resample --enable-avisynth --enable-gnutls --enable-ladspa --enable-libaom --enable-libass --enable-libbluray --enable-libbs2b --enable-libcaca --enable-libcdio --enable-libcodec2 --enable-libflite --enable-libfontconfig --enable-libfreetype --enable-libfribidi --enable-libgme --enable-libgsm --enable-libjack --enable-libmp3lame --enable-libmysofa --enable-libopenjpeg --enable-libopenmpt --enable-libopus --enable-libpulse --enable-librsvg --enable-librubberband --enable-libshine --enable-libsnappy --enable-libsoxr --enable-libspeex --enable-libssh --enable-libtheora --enable-libtwolame --enable-libvidstab --enable-libvorbis --enable-libvpx --enable-libwavpack --enable-libwebp --enable-libx265 --enable-libxml2 --enable-libxvid --enable-libzmq --enable-libzvbi --enable-lv2 --enable-omx --enable-openal --enable-opengl --enable-sdl2 --enable-libdc1394 --enable-libdrm --enable-libiec61883 --enable-chromaprint --enable-frei0r --enable-libx264 --enable-shared
  libavutil      56. 22.100 / 56. 22.100
  libavcodec     58. 35.100 / 58. 35.100
  libavformat    58. 20.100 / 58. 20.100
  libavdevice    58.  5.100 / 58.  5.100
  libavfilter     7. 40.101 /  7. 40.101
  libavresample   4.  0.  0 /  4.  0.  0
  libswscale      5.  3.100 /  5.  3.100
  libswresample   3.  3.100 /  3.  3.100
  libpostproc    55.  3.100 / 55.  3.100
[mov,mp4,m4a,3gp,3g2,mj2 @ 0x563f03207d40] Could not find codec parameters for stream 0 (Video: h264 (avc1 / 0x31637661), none, 640x480, 1243 kb/s): unspecified pixel format
Consider increasing the value for the 'analyzeduration' and 'probesize' options
Input #0, mov,mp4,m4a,3gp,3g2,mj2, from '/media/quentin/2A58AE9F16A70B2F/Cassettes/Année 1999 - Johan Solène Emeline - Baptême Johan (21-11-1999) - Noël Spectacle école (19-12-1999).mp4':
  Metadata:
    major_brand     : isom
    minor_version   : 512
    compatible_brands: isomiso2avc1mp41
    encoder         : Lavf58.20.100
  Duration:   Duration: 01:02:29.00, start: 0.020000, bitrate: 1378 kb/s
    Stream #0:0(eng): Video: h264 (avc1 / 0x31637661), none, 640x480, 1243 kb/s, SAR 1:1 DAR 4:3, 24.96 fps, 25 tbr, 90k tbn, 180k tbc (default)
    Metadata:
      handler_name    : VideoHandler
    Stream #0:1(eng): Audio: mp2 (mp4a / 0x6134706D), 44100 Hz, stereo, fltp, 127 kb/s (default)
    Metadata:
      handler_name    : SoundHandler
[mov,mp4,m4a,3gp,3g2,mj2 @ 0x563f0320ec80] Could not find codec parameters for stream 0 (Video: h264 (avc1 / 0x31637661), none, 640x480, 1243 kb/s): unspecified pixel format
Consider increasing the value for the 'analyzeduration' and 'probesize' options
Input #1, mov,mp4,m4a,3gp,3g2,mj2, from '/media/quentin/2A58AE9F16A70B2F/Cassettes/Année 1999 - Johan Solène Emeline - Baptême Johan (21-11-1999) - Noël Spectacle école (19-12-1999).mp4':
  Metadata:
    major_brand     : isom
    minor_version   : 512
    compatible_brands: isomiso2avc1mp41
    encoder         : Lavf58.20.100
  Duration: 01:02:29.00, start: 0.020000, bitrate: 1378 kb/s
    Stream #1:0(eng): Video: h264 (avc1 / 0x31637661), none, 640x480, 1243 kb/s, SAR 1:1 DAR 4:3, 24.96 fps, 25 tbr, 90k tbn, 180k tbc (default)
    Metadata:
      handler_name    : VideoHandler
    Stream #1:1(eng): Audio: mp2 (mp4a / 0x6134706D), 44100 Hz, stereo, fltp, 127 kb/s (default)
    Metadata:
      handler_name    : SoundHandler
Stream mapping:
  Stream #1:0 -> #0:0 (h264 (native) -> mpeg2video (native))
  Stream #0:1 -> #0:1 (mp2 (native) -> ac3 (native))
Press [q] to stop, [?] for help
Too many packets buffered for output st




- Quant à DVDstyler, de mémoire il grave directement le projet. Et idem, il échoue pendant la gravure sans me donner de logs...

Je vais essayer d'obtenir des logs en faisant d'autres essais. Mais si vous avez une solution que vous utilisez déjà et qui fonctionne, je suis preneur ! Merci d'avance smile

Dernière modification par Caribou22 (02-10-2020 18:47:08)

Hors ligne

#2 03-10-2020 12:22:07

golgot200
Membre
Distrib. : Archlinux 2018-02-03
Noyau : 5.9.4-arch1-1
(G)UI : Mate (Strict Minimum)
Inscription : 05-08-2007

Re : Gravure de DVD lisible par lecteur DVD

Bonjour,

J'ai testé Devede sur ma Archlinux, pas de problème, ça fonctionne. hmm

Hors ligne

#3 03-10-2020 12:43:26

golgot200
Membre
Distrib. : Archlinux 2018-02-03
Noyau : 5.9.4-arch1-1
(G)UI : Mate (Strict Minimum)
Inscription : 05-08-2007

Re : Gravure de DVD lisible par lecteur DVD

Ton mp4 en pal-dvd (mpeg2)

ffmpeg -i TON_RIP_VHS.mp4 -target pal-dvd TA_VIDEO_NORMALISE.mpg



export VIDEO_FORMAT=PAL



dvdauthor -o DVD_1/ -t TA_VIDEO_NORMALISE.mpg




└── [ 15M]  DVD_1
    ├── [4,0K]  AUDIO_TS
    └── [ 15M]  VIDEO_TS
        ├── [ 12K]  VTS_01_0.BUP
        ├── [ 12K]  VTS_01_0.IFO
        └── [ 15M]  VTS_01_1.VOB
 



IMPORTANT:

dvdauthor -o DVD_1/ -T



Autrement tu vas te taper ce message :


Setting input-charset to 'UTF-8' from locale.
mkisofs: Aucun fichier ou dossier de ce type. Failed to open 'DVD_1//VIDEO_TS/VIDEO_TS.IFO'.
mkisofs: Can't open VMG info for 'DVD_1/'.
mkisofs: Unable to parse DVD-Video structures.
mkisofs: Could not find correct 'VIDEO_TS' directory.
mkisofs: Unable to make a DVD-Video image.
 



mkisofs -dvd-video -o DVD_1.iso DVD_1/



Pour Graver :

wodim -v dev=/dev/sr0 speed=8 -eject DVD_1.iso



Le Log :


ffmpeg -i TON_RIP_VHS.mp4 -target pal-dvd TA_VIDEO_NORMALISE.mpg
ffmpeg version n4.3.1 Copyright (c) 2000-2020 the FFmpeg developers
  built with gcc 10.1.0 (GCC)
  configuration: --prefix=/usr --disable-debug --disable-static --disable-stripping --enable-avisynth --enable-fontconfig --enable-gmp --enable-gnutls --enable-gpl --enable-ladspa --enable-libaom --enable-libass --enable-libbluray --enable-libdav1d --enable-libdrm --enable-libfreetype --enable-libfribidi --enable-libgsm --enable-libiec61883 --enable-libjack --enable-libmfx --enable-libmodplug --enable-libmp3lame --enable-libopencore_amrnb --enable-libopencore_amrwb --enable-libopenjpeg --enable-libopus --enable-libpulse --enable-librav1e --enable-libsoxr --enable-libspeex --enable-libsrt --enable-libssh --enable-libtheora --enable-libv4l2 --enable-libvidstab --enable-libvmaf --enable-libvorbis --enable-libvpx --enable-libwebp --enable-libx264 --enable-libx265 --enable-libxcb --enable-libxml2 --enable-libxvid --enable-nvdec --enable-nvenc --enable-omx --enable-shared --enable-version3
  libavutil      56. 51.100 / 56. 51.100
  libavcodec     58. 91.100 / 58. 91.100
  libavformat    58. 45.100 / 58. 45.100
  libavdevice    58. 10.100 / 58. 10.100
  libavfilter     7. 85.100 /  7. 85.100
  libswscale      5.  7.100 /  5.  7.100
  libswresample   3.  7.100 /  3.  7.100
  libpostproc    55.  7.100 / 55.  7.100
Input #0, mov,mp4,m4a,3gp,3g2,mj2, from 'TON_RIP_VHS.mp4':
  Metadata:
    major_brand     : isom
    minor_version   : 512
    compatible_brands: isomiso2avc1mp41
    encoder         : Lavf58.45.100
  Duration: 00:01:05.46, start: 0.000000, bitrate: 706 kb/s
    Stream #0:0(und): Video: h264 (High) (avc1 / 0x31637661), yuv420p(tv, bt709), 1280x720 [SAR 1:1 DAR 16:9], 571 kb/s, 29.97 fps, 29.97 tbr, 30k tbn, 59.94 tbc (default)
    Metadata:
      handler_name    : ISO Media file produced by Google Inc.
    Stream #0:1(nld): Audio: aac (LC) (mp4a / 0x6134706D), 44100 Hz, stereo, fltp, 127 kb/s (default)
    Metadata:
      handler_name    : ISO Media file produced by Google Inc.
Stream mapping:
  Stream #0:0 -> #0:0 (h264 (native) -> mpeg2video (native))
  Stream #0:1 -> #0:1 (aac (native) -> ac3 (native))
Press [q] to stop, [?] for help
Output #0, dvd, to 'TA_VIDEO_NORMALISE.mpg':
  Metadata:
    major_brand     : isom
    minor_version   : 512
    compatible_brands: isomiso2avc1mp41
    encoder         : Lavf58.45.100
    Stream #0:0(und): Video: mpeg2video (Main), yuv420p, 720x576 [SAR 64:45 DAR 16:9], q=2-31, 6000 kb/s, 25 fps, 90k tbn, 25 tbc (default)
    Metadata:
      handler_name    : ISO Media file produced by Google Inc.
      encoder         : Lavc58.91.100 mpeg2video
    Side data:
      cpb: bitrate max/min/avg: 9000000/0/6000000 buffer size: 1835008 vbv_delay: N/A
    Stream #0:1(nld): Audio: ac3, 48000 Hz, stereo, fltp, 448 kb/s (default)
    Metadata:
      handler_name    : ISO Media file produced by Google Inc.
      encoder         : Lavc58.91.100 ac3
frame= 1637 fps=256 q=2.0 Lsize=   15302kB time=00:01:05.46 bitrate=1914.8kbits/s dup=0 drop=323 speed=10.3x    
video:11184kB audio:3580kB subtitle:0kB other streams:0kB global headers:0kB muxing overhead: 3.637398%
[patrick@PC1 1]$ export VIDEO_FORMAT=PAL
[patrick@PC1 1]$ dvdauthor -o DVD_1/ -t TA_VIDEO_NORMALISE.mpg
DVDAuthor::dvdauthor, version 0.7.2.
Build options: gnugetopt imagemagick iconv freetype fribidi fontconfig
Send bug reports to <dvdauthor-users@lists.sourceforge.net>

INFO: default video format is PAL
INFO: dvdauthor creating VTS
STAT: Picking VTS 01

STAT: Processing TA_VIDEO_NORMALISE.mpg...
STAT: VOBU 96 at 13MB, 1 PGCs
INFO: Video pts = 0.540 .. 66.020
INFO: Audio[0] pts = 0.534 .. 66.006
STAT: VOBU 109 at 14MB, 1 PGCs
CHAPTERS: VTS[1/1] 0.000
INFO: Generating VTS with the following video attributes:
INFO: MPEG version: mpeg2
INFO: TV standard: pal
INFO: Aspect ratio: 16:9
INFO: Resolution: 720x576
INFO: Audio ch 0 format: ac3/2ch,  48khz drc

STAT: fixed 109 VOBUs                        
[patrick@PC1 1]$ dvdauthor -o DVD_1/ -T
DVDAuthor::dvdauthor, version 0.7.2.
Build options: gnugetopt imagemagick iconv freetype fribidi fontconfig
Send bug reports to <dvdauthor-users@lists.sourceforge.net>

INFO: default video format is PAL
INFO: dvdauthor creating table of contents
INFO: Scanning DVD_1/VIDEO_TS/VTS_01_0.IFO
[patrick@PC1 1]$ mkisofs -dvd-video -o DVD_1.iso DVD_1/
Setting input-charset to 'UTF-8' from locale.
The pad was 26 for file VIDEO_TS.IFO
 61,79% done, estimate finish Sat Oct  3 14:33:08 2020
Total translation table size: 0
Total rockridge attributes bytes: 0
Total directory bytes: 4096
Path table size(bytes): 42
Max brk space used 0
8123 extents written (15 MB)
 



C'est testé chez moi, sauf la gravure. wink

Dernière modification par golgot200 (03-10-2020 13:33:41)

Hors ligne

#4 03-10-2020 18:42:15

smolski
quasi...modo
Lieu : AIN
Distrib. : backports (buster) 10
Noyau : Linux 4.19.0-8-amd64
(G)UI : gnome
Inscription : 21-10-2008

Re : Gravure de DVD lisible par lecteur DVD

Merci golgot200, post mis en lien dans le wiki de wodim : https://debian-facile.org/doc:systeme:wodim#liens big_smile

"Théo et Adama te rappellent pourquoi Zyed et Bouna couraient…"
"L'utopie ne signifie pas l'irréalisable, mais l'irréalisée." - T Monod (source :  La zone de Siné)
"Je peux rire de tout mais pas avec n'importe qui." - P Desproges
"saque eud dun" (patois chtimi : fonce dedans)

En ligne

#5 13-10-2020 14:28:47

Caribou22
CA Debian-Facile
Lieu : 22, Côtes d'Armor, Bretagne
Distrib. : Debian Stable
Noyau : Sans pépins
(G)UI : Xfce, Gnome
Inscription : 10-11-2014
Site Web

Re : Gravure de DVD lisible par lecteur DVD

Bonjour smile

Tentative en ligne de commande suivant golgot200 :

ffmpeg -i Video1.mp4 -target pal-dvd video1_NORMALISE.mpg


ffmpeg version 4.1.6-1~deb10u1 Copyright (c) 2000-2020 the FFmpeg developers
  built with gcc 8 (Debian 8.3.0-6)
  configuration: --prefix=/usr --extra-version='1~deb10u1' --toolchain=hardened --libdir=/usr/lib/x86_64-linux-gnu --incdir=/usr/include/x86_64-linux-gnu --arch=amd64 --enable-gpl --disable-stripping --enable-avresample --disable-filter=resample --enable-avisynth --enable-gnutls --enable-ladspa --enable-libaom --enable-libass --enable-libbluray --enable-libbs2b --enable-libcaca --enable-libcdio --enable-libcodec2 --enable-libflite --enable-libfontconfig --enable-libfreetype --enable-libfribidi --enable-libgme --enable-libgsm --enable-libjack --enable-libmp3lame --enable-libmysofa --enable-libopenjpeg --enable-libopenmpt --enable-libopus --enable-libpulse --enable-librsvg --enable-librubberband --enable-libshine --enable-libsnappy --enable-libsoxr --enable-libspeex --enable-libssh --enable-libtheora --enable-libtwolame --enable-libvidstab --enable-libvorbis --enable-libvpx --enable-libwavpack --enable-libwebp --enable-libx265 --enable-libxml2 --enable-libxvid --enable-libzmq --enable-libzvbi --enable-lv2 --enable-omx --enable-openal --enable-opengl --enable-sdl2 --enable-libdc1394 --enable-libdrm --enable-libiec61883 --enable-chromaprint --enable-frei0r --enable-libx264 --enable-shared
  libavutil      56. 22.100 / 56. 22.100
  libavcodec     58. 35.100 / 58. 35.100
  libavformat    58. 20.100 / 58. 20.100
  libavdevice    58.  5.100 / 58.  5.100
  libavfilter     7. 40.101 /  7. 40.101
  libavresample   4.  0.  0 /  4.  0.  0
  libswscale      5.  3.100 /  5.  3.100
  libswresample   3.  3.100 /  3.  3.100
  libpostproc    55.  3.100 / 55.  3.100
[mov,mp4,m4a,3gp,3g2,mj2 @ 0x55b26ce36740] Could not find codec parameters for stream 0 (Video: h264 (avc1 / 0x31637661), none, 640x480, 1243 kb/s): unspecified pixel format
Consider increasing the value for the 'analyzeduration' and 'probesize' options
Input #0, mov,mp4,m4a,3gp,3g2,mj2, from 'Video1.mp4':
  Metadata:
    major_brand     : isom
    minor_version   : 512
    compatible_brands: isomiso2avc1mp41
    encoder         : Lavf58.20.100
  Duration: 01:02:29.00, start: 0.020000, bitrate: 1378 kb/s
    Stream #0:0(eng): Video: h264 (avc1 / 0x31637661), none, 640x480, 1243 kb/s, SAR 1:1 DAR 4:3, 24.96 fps, 25 tbr, 90k tbn, 180k tbc (default)
    Metadata:
      handler_name    : VideoHandler
    Stream #0:1(eng): Audio: mp2 (mp4a / 0x6134706D), 44100 Hz, stereo, fltp, 127 kb/s (default)
    Metadata:
      handler_name    : SoundHandler
Stream mapping:
  Stream #0:0 -> #0:0 (h264 (native) -> mpeg2video (native))
  Stream #0:1 -> #0:1 (mp2 (native) -> ac3 (native))
Press [q] to stop, [?] for help
Too many packets buffered for output stream 0:1.
Conversion failed!



hmm

Edit :
Solution : https://stackoverflow.com/a/50262835
Donc la commande devient :
ffmpeg -i Video1.mp4 -target pal-dvd -max_muxing_queue_size 1024 video1_NORMALISE.mpg
Je poursuis les tests smile

Edit 2 : Ça marche !!! big_smile
Je peux donc mettre résolu donc wink

Edit 3: mkisofs semble ne plus exister ? J'ai utilisé genisoimage à la place

Par contre il n'y a pas de solution 100% graphique du coup ?

Dernière modification par Caribou22 (20-10-2020 20:29:56)

Hors ligne

Pied de page des forums